<?xml version="1.0" standalone="no"?>
<!DOCTYPE svg PUBLIC "-//W3C//DTD SVG 1.1//EN" "http://www.w3.org/Graphics/SVG/1.1/DTD/svg11.dtd" >
<svg>
<metadata>
Created by FontForge 20120731 at Mon Jul  1 20:44:25 2019
 By www
(c) 1987, 2001 Adobe Systems Incorporated. All rights reserved.
</metadata>
<defs>
<font id="OratorStd" horiz-adv-x="600" >
  <font-face 
    font-family="Orator Std"
    font-weight="400"
    font-stretch="normal"
    units-per-em="1000"
    panose-1="2 13 5 9 2 2 3 3 2 4"
    ascent="667"
    descent="-333"
    x-height="521"
    cap-height="667"
    bbox="-3 -288 604 1046"
    underline-thickness="63"
    underline-position="-28"
    unicode-range="U+0020-FB02"
  />
<missing-glyph 
d="M50 700h500v-700h-500v700zM470 650h-340l170 -255zM500 95v510l-170 -255zM470 50l-170 255l-170 -255h340zM100 95l170 255l-170 255v-510z" />
    <glyph glyph-name=".notdef" 
d="M50 700h500v-700h-500v700zM470 650h-340l170 -255zM500 95v510l-170 -255zM470 50l-170 255l-170 -255h340zM100 95l170 255l-170 255v-510z" />
    <glyph glyph-name="space" unicode=" " 
 />
    <glyph glyph-name="exclam" unicode="!" 
d="M267 207l-18 460h102l-20 -460h-64zM254 148h92v-148h-92v148z" />
    <glyph glyph-name="quotedbl" unicode="&#x22;" 
d="M268 676v-111l-27 -135h-38l-27 135v111h92zM425 676v-111l-27 -135h-38l-27 135v111h92z" />
    <glyph glyph-name="numbersign" unicode="#" 
d="M311 805l-162 -901h-45l61 335h-134l8 44h134l28 157h-134l8 44h134l58 321h44zM284 -96l165 901h44l-58 -321h135l-9 -44h-134l-28 -157h134l-8 -44h-134l-62 -335h-45z" />
    <glyph glyph-name="dollar" unicode="$" 
d="M332 137q34 2 58 24t24 56q0 32 -25 55q-24 21 -57 26v-161zM262 530q-24 -6 -40 -28q-16 -21 -16 -46q0 -52 56 -71v145zM262 318q-126 33 -126 141q0 51 38 89q36 36 88 45v83h70v-83q78 -7 140 -87l-49 -43q-55 62 -91 67v-164q66 -10 106 -46q46 -41 46 -104
q0 -60 -47 -102q-44 -39 -105 -40v-83h-70v83q-87 4 -146 99l55 40q47 -70 91 -76v181z" />
    <glyph glyph-name="percent" unicode="%" 
d="M384 191q-50 0 -50 -75t50 -75q49 0 49 75t-49 75zM518 655l-376 -664l-60 32l330 580q-19 -8 -45 -8q-27 0 -53 9q9 -25 9 -53q0 -53 -28 -88q-30 -38 -81 -38q-52 0 -82 38q-28 35 -28 88q0 52 28 87q30 38 82 38q21 0 67 -14q51 -17 82 -17q73 0 119 30zM465 29
q-30 -38 -81 -38q-52 0 -82 38q-28 35 -28 87t28 87q30 38 82 38q51 0 81 -38q28 -35 28 -87t-28 -87zM214 626q-50 0 -50 -75q0 -76 50 -76q49 0 49 76q0 75 -49 75z" />
    <glyph glyph-name="ampersand" unicode="&#x26;" 
d="M248 236q-62 -43 -62 -92q0 -40 26 -65t66 -25q45 0 80 33zM285 334q61 44 61 89q0 76 -72 76q-64 0 -64 -69q0 -43 54 -111zM196 304q-49 66 -49 122q0 61 35 98q36 38 95 38q58 0 95 -40q37 -39 37 -96q0 -83 -109 -156l98 -133q24 36 29 98l66 -13q-10 -83 -53 -142
l41 -57l-51 -37l-36 49q-57 -44 -120 -44q-66 0 -112 43t-46 109q0 75 95 141z" />
    <glyph glyph-name="quoteright" unicode="&#x2019;" 
d="M357 667v-45q0 -104 -111 -162l-23 55q42 27 42 91v61h92z" />
    <glyph glyph-name="parenleft" unicode="(" 
d="M402 637q-124 -118 -124 -332t124 -332l-40 -40q-154 131 -154 372q0 242 154 371z" />
    <glyph glyph-name="parenright" unicode=")" 
d="M238 676q154 -129 154 -371q0 -241 -154 -372l-40 40q124 118 124 332t-124 332z" />
    <glyph glyph-name="asterisk" unicode="*" 
d="M243 554l-63 74l68 48l52 -94l52 94l68 -48l-63 -74l100 10v-88l-100 9l63 -73l-68 -49l-52 95l-52 -95l-68 49l63 73l-100 -9v88zM272 520q0 -28 28 -28t28 28t-28 28t-28 -28z" />
    <glyph glyph-name="plus" unicode="+" 
d="M566 338h-244v-244h-44v244h-244v44h244v244h44v-244h244v-44z" />
    <glyph glyph-name="comma" unicode="," 
d="M357 148v-45q0 -104 -111 -162l-23 55q42 27 42 91v61h92z" />
    <glyph glyph-name="hyphen" unicode="-" 
d="M189 292h222v-63h-222v63z" />
    <glyph glyph-name="period" unicode="." 
d="M254 148h92v-148h-92v148z" />
    <glyph glyph-name="slash" unicode="/" 
d="M129 -27l296 774h46l-296 -774h-46z" />
    <glyph glyph-name="zero" unicode="0" 
d="M472 533q13 -52 13 -200q0 -154 -16 -211q-39 -131 -170 -131q-132 0 -169 128q-17 56 -17 214q0 170 20 230q38 113 166 113q135 0 173 -143zM194 523q-11 -43 -11 -190q0 -179 33 -238q22 -41 83 -41q64 0 87 47q29 58 29 232q0 178 -31 237q-23 43 -85 43
q-83 0 -105 -90z" />
    <glyph glyph-name="one" unicode="1" 
d="M279 586l-122 -47l-21 61l210 80v-620h143v-60h-378v60h168v526z" />
    <glyph glyph-name="two" unicode="2" 
d="M114 60l247 319q56 72 56 125q0 48 -29 78q-30 31 -78 31q-110 0 -129 -134l-66 9q27 188 195 188q80 0 128 -45q49 -46 49 -125q0 -73 -70 -163l-218 -283h287v-60h-372v60z" />
    <glyph glyph-name="three" unicode="3" 
d="M192 404l197 203h-278v60h370v-60l-185 -189q82 2 136 -43q57 -47 57 -127q0 -129 -121 -203q-87 -54 -248 -54v63q136 0 192 32q107 58 107 160q0 112 -149 112q-9 0 -78 -8v54z" />
    <glyph glyph-name="four" unicode="4" 
d="M110 167l99 513l67 -18l-86 -435h181v339h67v-339h53v-60h-53v-167h-67v167h-261z" />
    <glyph glyph-name="five" unicode="5" 
d="M137 667h342v-60h-275v-205q58 21 99 21q76 0 127 -47q54 -49 54 -130q0 -130 -118 -205q-79 -50 -250 -50v63q141 0 195 29q103 55 103 163q0 53 -33 84q-32 30 -85 30q-45 0 -111 -35h-48v342z" />
    <glyph glyph-name="six" unicode="6" 
d="M422 563q-57 50 -107 50q-79 0 -110 -88q-19 -52 -22 -155q64 54 133 54q88 0 133 -66q39 -56 39 -148q0 -94 -48 -154q-52 -65 -144 -65q-183 0 -183 335q0 350 199 350q85 0 148 -58zM220 97q26 -43 81 -43q58 0 89 46q28 41 28 107q0 154 -112 154q-54 0 -123 -65
q1 -143 37 -199z" />
    <glyph glyph-name="seven" unicode="7" 
d="M419 607h-275v60h372l-303 -680l-60 27z" />
    <glyph glyph-name="eight" unicode="8" 
d="M217 255q-38 -36 -38 -88q0 -51 35 -82t86 -31t86 31t35 82q0 52 -38 88q-15 13 -83 56q-68 -43 -83 -56zM368 430q31 32 31 76q0 46 -26 76q-27 31 -73 31t-73 -31q-26 -30 -26 -76q0 -44 31 -76q13 -13 68 -50q55 37 68 50zM491 170q0 -80 -56 -130q-54 -49 -135 -49
t-135 49q-56 50 -56 130q0 108 134 175q-112 70 -112 161q0 73 48 121q48 49 121 49t121 -49q48 -48 48 -121q0 -92 -111 -161q133 -67 133 -175z" />
    <glyph glyph-name="nine" unicode="9" 
d="M178 104q55 -50 108 -50q79 0 110 88q18 51 21 155q-62 -54 -132 -54q-88 0 -133 65q-39 57 -39 149q0 94 48 154q51 65 143 65q114 0 156 -120q27 -75 27 -215q0 -350 -199 -350q-85 0 -148 58zM382 568q-27 45 -82 45q-58 0 -89 -46q-28 -42 -28 -108q0 -153 112 -153
q54 0 122 64q0 141 -35 198z" />
    <glyph glyph-name="colon" unicode=":" 
d="M254 148h92v-148h-92v148zM254 432h92v-148h-92v148z" />
    <glyph glyph-name="semicolon" unicode=";" 
d="M357 148v-45q0 -104 -111 -162l-23 55q42 27 42 91v61h92zM265 432h92v-148h-92v148z" />
    <glyph glyph-name="less" unicode="&#x3c;" 
d="M477 720l25 -32l-340 -328l340 -328l-25 -32l-379 360z" />
    <glyph glyph-name="equal" unicode="=" 
d="M566 405h-532v44h532v-44zM566 271h-532v44h532v-44z" />
    <glyph glyph-name="greater" unicode="&#x3e;" 
d="M502 360l-379 -360l-25 32l340 328l-340 328l25 32z" />
    <glyph glyph-name="question" unicode="?" 
d="M262 220v17q0 54 10 77q11 23 53 59q87 75 87 132q0 48 -26 77q-27 31 -75 31q-103 0 -127 -138l-66 17q36 184 191 184q78 0 125 -45q48 -47 48 -124q0 -86 -99 -171q-34 -30 -41 -43q-11 -18 -11 -59v-14h-69zM250 148h92v-148h-92v148z" />
    <glyph glyph-name="at" unicode="@" 
d="M526 68q-117 -77 -246 -77q-105 0 -177 68q-84 79 -84 219q0 153 76 267q86 131 230 131q94 0 168 -65q88 -78 88 -213q0 -83 -34 -148q-43 -80 -118 -80q-43 0 -83 41q-47 -41 -92 -41q-40 0 -65 25q-26 25 -26 65q0 90 54 159q51 65 211 59l-25 -151q-7 -45 -7 -54
q0 -40 34 -40q42 0 65 62q16 45 16 98q0 99 -53 160q-53 60 -139 60q-93 0 -159 -87q-71 -95 -71 -250q0 -103 53 -163q53 -59 143 -59q98 0 217 77zM351 415q-59 -12 -73 -29q-45 -54 -45 -121q0 -32 26 -32q57 0 87 156z" />
    <glyph glyph-name="A" unicode="A" 
d="M209 206l-52 -219l-66 18l169 662h80l169 -662l-66 -18l-52 219h-182zM301 578h-2l-74 -312h150z" />
    <glyph glyph-name="B" unicode="B" 
d="M334 60q101 0 101 141q0 132 -119 132h-73v-273h91zM303 393q101 0 101 106q0 60 -31 85q-28 23 -91 23h-39v-214h60zM122 0v60h54v547h-54v60h204q59 0 101 -44q47 -48 47 -124q0 -90 -71 -129q102 -45 102 -170q0 -99 -49 -152q-45 -48 -119 -48h-215z" />
    <glyph glyph-name="C" unicode="C" 
d="M487 100q-67 -109 -173 -109q-116 0 -165 122q-35 84 -35 220q0 343 200 343q104 0 163 -108l-57 -34q-39 79 -106 79q-130 0 -130 -280q0 -279 130 -279q67 0 118 84z" />
    <glyph glyph-name="D" unicode="D" 
d="M119 607v60h176q109 0 157 -64q56 -76 56 -270q0 -152 -29 -222q-47 -111 -182 -111h-178v60h54v547h-54zM240 60h55q73 0 102 42q41 59 41 231q0 170 -41 232q-28 42 -86 42h-71v-547z" />
    <glyph glyph-name="E" unicode="E" 
d="M157 667h325v-60h-258v-220h213v-60h-213v-267h258v-60h-325v667z" />
    <glyph glyph-name="F" unicode="F" 
d="M176 667h328v-60h-261v-220h219v-60h-219v-327h-67v667z" />
    <glyph glyph-name="G" unicode="G" 
d="M476 49q-71 -58 -155 -58q-115 0 -165 121q-37 86 -37 220q0 130 35 219q50 125 160 125q102 0 167 -107l-59 -36q-45 80 -112 80q-72 0 -102 -112q-19 -70 -19 -171q0 -276 133 -276q49 0 87 31v201h-125v60h192v-297z" />
    <glyph glyph-name="H" unicode="H" 
d="M130 667h67v-280h206v280h67v-667h-67v327h-206v-327h-67v667z" />
    <glyph glyph-name="I" unicode="I" 
d="M266 607h-90v60h248v-60h-91v-547h91v-60h-248v60h90v547z" />
    <glyph glyph-name="J" unicode="J" 
d="M176 242v-67q0 -48 21 -80q26 -41 78 -41q44 0 71 37q25 35 25 93v483h67v-490q0 -90 -52 -141q-46 -45 -116 -45q-67 0 -111 45q-50 52 -50 144v62h67z" />
    <glyph glyph-name="K" unicode="K" 
d="M229 392h18l186 288l54 -34l-183 -282l219 -343l-56 -34l-215 345h-23v-332h-67v667h67v-275z" />
    <glyph glyph-name="L" unicode="L" 
d="M169 667h67v-607h274v-60h-341v667z" />
    <glyph glyph-name="M" unicode="M" 
d="M396 667h84l20 -667h-71l-13 556h-2l-114 -335l-114 335h-2l-13 -556h-70l20 667h83l96 -283z" />
    <glyph glyph-name="N" unicode="N" 
d="M126 667h84l198 -561l2 2l-3 149v410h67v-667h-84l-198 562l-2 -2l3 -151v-409h-67v667z" />
    <glyph glyph-name="O" unicode="O" 
d="M485 334q0 -130 -22 -203q-42 -140 -163 -140q-122 0 -164 139q-21 71 -21 204q0 342 185 342t185 -342zM198 510q-13 -54 -13 -176q0 -145 22 -207q26 -73 93 -73q76 0 101 97q14 54 14 183q0 136 -13 187q-24 92 -102 92q-77 0 -102 -103z" />
    <glyph glyph-name="P" unicode="P" 
d="M229 0h-67v667h145q89 0 136 -46q48 -46 48 -131q0 -90 -46 -143q-45 -50 -116 -50h-100v-297zM229 357l94 1q98 2 98 132q0 117 -115 117h-77v-250z" />
    <glyph glyph-name="Q" unicode="Q" 
d="M484 23l-51 -42l-39 47q-42 -37 -94 -37q-78 0 -127 77q-58 91 -58 265q0 168 54 259q49 84 131 84q78 0 127 -77q58 -90 58 -266q0 -163 -50 -252zM268 177l51 43l70 -83q26 79 26 194q0 282 -116 282q-114 0 -114 -285q0 -95 17 -164q28 -110 93 -110q36 0 58 22z" />
    <glyph glyph-name="R" unicode="R" 
d="M229 357h98q94 0 94 133q0 117 -110 117h-82v-250zM162 667h180q56 0 99 -43q50 -51 50 -134q0 -149 -115 -188l138 -286l-60 -29l-150 310h-75v-297h-67v667z" />
    <glyph glyph-name="S" unicode="S" 
d="M396 515q-22 98 -92 98q-88 0 -88 -107q0 -41 19 -64q20 -24 97 -70q72 -43 100 -76q38 -46 38 -117q0 -83 -42 -133q-45 -55 -126 -55q-154 0 -171 184l67 9q8 -65 26 -93q24 -37 80 -37q99 0 99 119q0 59 -37 97q-21 22 -89 61q-70 41 -93 68q-35 40 -35 107
q0 70 42 119q44 51 113 51q126 0 157 -151z" />
    <glyph glyph-name="T" unicode="T" 
d="M268 607h-144v60h352v-60h-141v-607h-67v607z" />
    <glyph glyph-name="U" unicode="U" 
d="M204 667v-485q0 -128 96 -128q97 0 97 128v485h67v-505q0 -78 -45 -124q-45 -47 -119 -47q-75 0 -119 47q-44 46 -44 121v508h67z" />
    <glyph glyph-name="V" unicode="V" 
d="M438 680l68 -14l-198 -679h-16l-198 679l68 14l138 -499z" />
    <glyph glyph-name="W" unicode="W" 
d="M508 667l-67 -680h-29l-111 403h-2l-111 -403h-29l-67 680l67 13l32 -501h2l97 351h20l97 -351h2l32 501z" />
    <glyph glyph-name="X" unicode="X" 
d="M153 -13l-60 28l174 348l-143 286l62 31l114 -249l114 249l62 -31l-143 -286l174 -348l-60 -28l-146 305z" />
    <glyph glyph-name="Y" unicode="Y" 
d="M444 680l62 -25l-173 -392v-263h-67v263l-172 392l62 25l144 -339z" />
    <glyph glyph-name="Z" unicode="Z" 
d="M387 607h-254v60h355l-282 -607h290v-60h-392z" />
    <glyph glyph-name="bracketleft" unicode="[" 
d="M448 676v-60h-203v-594h203v-60h-270v714h270z" />
    <glyph glyph-name="backslash" unicode="\" 
d="M129 747h46l296 -774h-46z" />
    <glyph glyph-name="bracketright" unicode="]" 
d="M422 -38h-270v60h203v594h-203v60h270v-714z" />
    <glyph glyph-name="asciicircum" unicode="^" 
d="M110 357l164 323h52l161 -323h-50l-137 275l-140 -275h-50z" />
    <glyph glyph-name="underscore" unicode="_" 
d="M0 -108v36h600v-36h-600z" />
    <glyph glyph-name="quoteleft" unicode="&#x2018;" 
d="M216 469v45q0 104 111 162l23 -55q-42 -27 -42 -91v-61h-92z" />
    <glyph glyph-name="a" unicode="a" 
d="M208 142l-49 -155l-66 24l164 510h86l164 -510l-66 -24l-48 155h-185zM300 443l-74 -241h148z" />
    <glyph glyph-name="b" unicode="b" 
d="M321 60q114 0 114 84q0 41 -25 67q-27 27 -73 27h-94v-178h78zM318 298q42 0 65 24q22 23 22 60q0 79 -91 79h-71v-163h75zM122 0v60h54v401h-54v60h164q189 0 189 -139q0 -75 -59 -107q89 -28 89 -126q0 -71 -45 -110q-44 -39 -126 -39h-212z" />
    <glyph glyph-name="c" unicode="c" 
d="M487 100q-69 -109 -173 -109q-105 0 -157 86q-43 71 -43 183q0 141 66 213q52 57 128 57q105 0 165 -111l-61 -31q-41 79 -103 79q-69 0 -101 -73q-24 -53 -24 -133q0 -207 125 -207q68 0 123 84z" />
    <glyph glyph-name="d" unicode="d" 
d="M119 521h174q114 0 163 -55q52 -58 52 -199q0 -138 -37 -195q-48 -72 -178 -72h-174v60h54v401h-54v60zM240 60h71q67 0 97 44q30 46 30 156q0 114 -33 161q-30 40 -96 40h-69v-401z" />
    <glyph glyph-name="e" unicode="e" 
d="M157 521h325v-60h-258v-156h213v-60h-213v-185h258v-60h-325v521z" />
    <glyph glyph-name="f" unicode="f" 
d="M176 521h328v-60h-261v-156h219v-60h-219v-245h-67v521z" />
    <glyph glyph-name="g" unicode="g" 
d="M476 48q-72 -57 -160 -57q-105 0 -156 87q-41 70 -41 183q0 111 42 182q51 87 153 87q106 0 167 -100l-57 -37q-44 74 -114 74q-68 0 -99 -74q-22 -53 -22 -134q0 -205 123 -205q54 0 97 27v137h-125v60h192v-230z" />
    <glyph glyph-name="h" unicode="h" 
d="M130 521h67v-216h206v216h67v-521h-67v245h-206v-245h-67v521z" />
    <glyph glyph-name="i" unicode="i" 
d="M193 60h73v401h-73v60h214v-60h-74v-401h74v-60h-214v60z" />
    <glyph glyph-name="j" unicode="j" 
d="M176 194q-3 -76 20 -108q22 -32 74 -32q101 0 101 104v363h67v-376q0 -62 -40 -105q-47 -49 -128 -49q-84 0 -122 49q-39 49 -39 154h67z" />
    <glyph glyph-name="k" unicode="k" 
d="M229 299h25l179 235l51 -40l-173 -219l203 -245l-51 -43l-211 257h-23v-244h-67v521h67v-222z" />
    <glyph glyph-name="l" unicode="l" 
d="M170 521h67v-461h273v-60h-340v521z" />
    <glyph glyph-name="m" unicode="m" 
d="M183 422h-2l-13 -422h-71l21 521h88l94 -226l94 226h88l21 -521h-71l-13 422h-2l-117 -275z" />
    <glyph glyph-name="n" unicode="n" 
d="M126 521h83l202 -439l2 2l-6 135v302h67v-521h-83l-202 439l-2 -2l6 -136v-301h-67v521z" />
    <glyph glyph-name="o" unicode="o" 
d="M424 474q61 -71 61 -214q0 -86 -24 -150q-45 -119 -161 -119q-75 0 -124 56q-61 70 -61 213t60 213q49 57 125 57q75 0 124 -56zM185 260q0 -206 115 -206t115 206q0 207 -115 207t-115 -207z" />
    <glyph glyph-name="p" unicode="p" 
d="M229 0h-67v521h162q85 0 129 -42q39 -38 39 -100q0 -77 -48 -119q-42 -36 -103 -36h-112v-224zM321 284q101 0 101 90q0 87 -101 87h-92v-177h92z" />
    <glyph glyph-name="q" unicode="q" 
d="M500 16l-42 -45l-58 53q-43 -33 -100 -33q-75 0 -124 56q-61 70 -61 213q0 139 57 210q49 60 128 60q75 0 124 -56q61 -71 61 -214q0 -125 -44 -190zM265 147l41 46l84 -77q25 59 25 144q0 207 -115 207t-115 -207q0 -206 115 -206q27 0 52 14z" />
    <glyph glyph-name="r" unicode="r" 
d="M304 283q49 0 78 26q30 26 30 70q0 82 -88 82h-108v-178h88zM149 521h177q70 0 111 -33q45 -37 45 -109q0 -49 -29 -90q-30 -42 -77 -56l128 -211l-58 -35l-133 236h-97v-223h-67v521z" />
    <glyph glyph-name="s" unicode="s" 
d="M191 165q23 -111 114 -111q43 0 70 22q28 24 28 66t-33 67q-15 11 -72 34q-82 35 -102 50q-46 35 -46 100q0 64 46 102q43 35 107 35q125 0 159 -131l-64 -19q-20 87 -96 87q-35 0 -59 -17q-26 -19 -26 -52q0 -49 70 -81l111 -49q72 -40 72 -122q0 -73 -46 -115
q-45 -40 -119 -40q-71 0 -117 43q-45 41 -57 112z" />
    <glyph glyph-name="t" unicode="t" 
d="M268 461h-144v60h352v-60h-141v-461h-67v461z" />
    <glyph glyph-name="u" unicode="u" 
d="M204 521v-355q0 -59 20 -84q21 -28 71 -28q60 0 83 28q19 24 19 84v355h67v-387q0 -58 -39 -97q-45 -46 -125 -46t-124 45q-39 40 -39 102v383h67z" />
    <glyph glyph-name="v" unicode="v" 
d="M442 534l64 -24l-200 -523h-12l-200 523l64 24l142 -382z" />
    <glyph glyph-name="w" unicode="w" 
d="M162 534l40 -366h2l87 256h18l87 -256h2l41 366l68 -8l-75 -539h-23l-109 321l-109 -321h-23l-75 539z" />
    <glyph glyph-name="x" unicode="x" 
d="M161 -13l-60 34l161 255l-147 223l61 35l124 -198l124 198l61 -35l-147 -223l161 -255l-60 -34l-139 230z" />
    <glyph glyph-name="y" unicode="y" 
d="M439 534l63 -33l-169 -300v-201h-67v201l-168 300l63 33l139 -268z" />
    <glyph glyph-name="z" unicode="z" 
d="M377 461h-244v60h355l-271 -461h279v-60h-392z" />
    <glyph glyph-name="braceleft" unicode="{" 
d="M323 59q0 -57 23 -78q24 -23 92 -23h23v-25h-33q-101 0 -138 32q-34 29 -34 108v132q0 60 -25 75q4 -2 -80 24q84 29 80 26q25 16 25 74v133q0 76 33 107q34 32 116 32h56v-25h-24q-70 0 -93 -23q-21 -20 -21 -77v-140q0 -81 -46 -107q46 -25 46 -105v-140z" />
    <glyph glyph-name="bar" unicode="|" 
d="M278 792h44v-1080h-44v1080z" />
    <glyph glyph-name="braceright" unicode="}" 
d="M277 550q0 57 -23 78q-24 23 -92 23h-23v25h33q101 0 138 -32q34 -29 34 -108v-132q0 -60 25 -75q-4 2 80 -24q-84 -29 -79 -26q-26 -16 -26 -74v-133q0 -76 -33 -107q-34 -32 -116 -32h-56v25h24q70 0 93 23q21 20 21 77v140q0 81 46 107q-46 25 -46 105v140z" />
    <glyph glyph-name="asciitilde" unicode="~" 
d="M570 418q-61 -114 -150 -114q-30 0 -123 38q-92 37 -117 37q-58 0 -119 -100l-31 23q68 121 145 121q44 0 132 -37q87 -38 112 -38q75 0 119 93z" />
    <glyph glyph-name="exclamdown" unicode="&#xa1;" 
d="M249 667h92v-148h-92v148zM346 0h-102l18 460h64z" />
    <glyph glyph-name="cent" unicode="&#xa2;" 
d="M340 -9h-67v79q-159 33 -159 266q0 234 159 267v73h67v-72q83 -10 133 -108l-61 -32q-30 58 -72 74v-405q49 12 92 81l55 -38q-62 -98 -147 -108v-77zM273 537q-89 -34 -89 -200q0 -169 89 -201v401z" />
    <glyph glyph-name="sterling" unicode="&#xa3;" 
d="M420 404v-60h-166q25 -100 25 -123q0 -50 -49 -137q34 8 66 8q31 0 69 -19q42 -20 50 -20q24 0 64 36l40 -44q-56 -54 -103 -54q-27 0 -65 19q-42 19 -71 19q-43 0 -113 -38l-36 47q78 129 78 178q0 43 -23 128h-106v60h89q-23 75 -23 111q0 69 52 116q51 45 121 45
q128 0 176 -116l-61 -22q-37 78 -111 78q-48 0 -77 -29q-30 -30 -30 -79q0 -33 20 -104h184z" />
    <glyph glyph-name="fraction" unicode="&#x2044;" 
d="M515 651l-377 -664l-53 26l377 667z" />
    <glyph glyph-name="yen" unicode="&#xa5;" 
d="M480 327v-60h-147v-267h-67v267h-146v60h122l-148 328l62 25l144 -339l144 339l62 -25l-148 -328h122z" />
    <glyph glyph-name="florin" unicode="&#x192;" 
d="M348 391h96v-60h-103l-35 -292q-8 -65 -22 -95q-37 -78 -124 -78h-51v60h43q47 0 67 35q13 24 20 87l34 283h-107v60h114l14 112q8 65 22 96q37 77 124 77h51v-60h-43q-47 0 -66 -35q-13 -23 -21 -87z" />
    <glyph glyph-name="section" unicode="&#xa7;" 
d="M352 449q57 -29 76 -46q37 -32 37 -77q0 -60 -54 -101q55 -42 55 -98q0 -62 -49 -100q-45 -36 -109 -36q-62 0 -110 36q-48 35 -64 95l67 23q28 -94 113 -94q34 0 57 18q25 19 25 52q0 31 -24 51q-10 8 -51 30l-48 25q-66 35 -84 50q-39 33 -39 84q0 62 51 97
q-42 36 -42 91q0 57 47 93q43 34 101 34q107 0 150 -103l-59 -26q-30 69 -93 69q-33 0 -54 -18q-22 -19 -22 -51q0 -28 28 -48q7 -6 51 -28zM251 430q-31 -29 -31 -67q0 -34 40 -55l102 -54q33 25 33 65q0 39 -73 75z" />
    <glyph glyph-name="currency" unicode="&#xa4;" 
d="M11 613l33 32l108 -107q64 52 148 52t148 -52l108 107l33 -32l-109 -107q50 -68 50 -146t-50 -146l109 -107l-33 -32l-108 107q-64 -52 -148 -52t-148 52l-108 -107l-33 32l109 107q-50 68 -50 146t50 146zM436 224q55 55 55 136t-55 137q-55 55 -136 55t-136 -55
q-55 -56 -55 -137t55 -136t136 -55t136 55z" />
    <glyph glyph-name="quotesingle" unicode="'" 
d="M346 676v-111l-27 -135h-38l-27 135v111h92z" />
    <glyph glyph-name="quotedblleft" unicode="&#x201c;" 
d="M329 469v45q0 104 111 162l23 -55q-42 -27 -42 -91v-61h-92zM143 469v45q0 104 111 162l23 -55q-42 -27 -42 -91v-61h-92z" />
    <glyph glyph-name="guillemotleft" unicode="&#xab;" 
d="M340 521l-205 -191l205 -192l-47 -50l-254 242l254 240zM564 521l-205 -191l205 -192l-47 -50l-254 242l254 240z" />
    <glyph glyph-name="guilsinglleft" unicode="&#x2039;" 
d="M443 521l-205 -191l205 -192l-47 -50l-254 242l254 240z" />
    <glyph glyph-name="guilsinglright" unicode="&#x203a;" 
d="M458 330l-254 -242l-47 50l205 192l-205 191l47 49z" />
    <glyph glyph-name="uniFB01" unicode="&#xfb01;" 
d="M540 461h-73v-401h73v-60h-213v60h73v401h-243v-156h152v-60h-152v-245h-67v521h450v-60z" />
    <glyph glyph-name="uniFB02" unicode="&#xfb02;" 
d="M430 60h160v-60h-227v461h-220v-156h152v-60h-152v-245h-67v521h354v-461z" />
    <glyph glyph-name="endash" unicode="&#x2013;" 
d="M78 292h444v-63h-444v63z" />
    <glyph glyph-name="dagger" unicode="&#x2020;" 
d="M267 423l-118 -6v73l119 -6l-10 183h85l-10 -183l119 6v-73l-118 6l5 -76l-10 -347h-57l-10 347z" />
    <glyph glyph-name="daggerdbl" unicode="&#x2021;" 
d="M146 433v72l119 -6l-6 168h83l-6 -168l119 6v-72l-121 6v-211l121 6v-73l-119 7l6 -168h-83l6 168l-119 -7v73l121 -6v211z" />
    <glyph glyph-name="periodcentered" unicode="&#xb7;" 
d="M265 396q14 14 35 14t36 -14q14 -15 14 -36t-14 -35q-15 -15 -36 -15t-35 15q-15 14 -15 35t15 36z" />
    <glyph glyph-name="paragraph" unicode="&#xb6;" 
d="M278 289q-91 -7 -155 46q-66 55 -66 146q0 195 240 195h246v-60h-46v-683h-67v683h-85v-683h-67v356z" />
    <glyph glyph-name="bullet" unicode="&#x2022;" 
d="M213 339q37 36 87 36t87 -36q36 -37 36 -87q0 -51 -36 -87t-87 -36q-52 0 -87 36q-36 35 -36 87q0 50 36 87z" />
    <glyph glyph-name="quotesinglbase" unicode="&#x201a;" 
d="M357 148v-45q0 -104 -111 -162l-23 55q42 27 42 91v61h92z" />
    <glyph glyph-name="quotedblbase" unicode="&#x201e;" 
d="M271 148v-45q0 -104 -111 -162l-23 55q42 27 42 91v61h92zM457 148v-45q0 -104 -111 -162l-23 55q42 27 42 91v61h92z" />
    <glyph glyph-name="quotedblright" unicode="&#x201d;" 
d="M271 667v-45q0 -104 -111 -162l-23 55q42 27 42 91v61h92zM457 667v-45q0 -104 -111 -162l-23 55q42 27 42 91v61h92z" />
    <glyph glyph-name="guillemotright" unicode="&#xbb;" 
d="M337 330l-254 -242l-47 50l205 192l-205 191l47 49zM561 330l-254 -242l-47 50l205 192l-205 191l47 49z" />
    <glyph glyph-name="ellipsis" unicode="&#x2026;" 
d="M54 148h92v-148h-92v148zM254 148h92v-148h-92v148zM454 148h92v-148h-92v148z" />
    <glyph glyph-name="perthousand" unicode="&#x2030;" 
d="M276 191q-44 0 -44 -75t44 -75t44 75t-44 75zM396 655l-336 -664l-53 32l294 580q-17 -8 -40 -8q-24 0 -47 9q8 -27 8 -53q0 -50 -23 -85q-27 -41 -75 -41q-47 0 -74 41q-24 35 -24 85t24 85q27 40 74 40q27 0 52 -12q39 -19 81 -19q66 0 106 31zM351 31q-27 -40 -75 -40
t-74 40q-24 35 -24 85t24 85q26 40 74 40t75 -40q23 -35 23 -85t-23 -85zM124 626q-44 0 -44 -75q0 -76 44 -76t44 76q0 75 -44 75zM570 31q-27 -40 -75 -40t-74 40q-24 35 -24 85t24 85q26 40 74 40t75 -40q23 -35 23 -85t-23 -85zM495 191q-44 0 -44 -75t44 -75t44 75
t-44 75z" />
    <glyph glyph-name="questiondown" unicode="&#xbf;" 
d="M338 447v-17q0 -54 -10 -77q-11 -23 -53 -59q-87 -75 -87 -132q0 -48 26 -77q27 -31 75 -31q103 0 127 138l66 -17q-36 -184 -191 -184q-78 0 -125 46q-48 46 -48 123q0 86 99 171q34 30 41 43q11 18 11 59v14h69zM257 667h92v-148h-92v148z" />
    <glyph glyph-name="grave" unicode="`" 
d="M413 594l-26 -44l-187 82l36 63z" />
    <glyph glyph-name="acute" unicode="&#xb4;" 
d="M413 632l-187 -82l-26 44l177 101z" />
    <glyph glyph-name="circumflex" unicode="&#x2c6;" 
d="M173 551l-24 36l151 102l151 -102l-23 -36l-128 62z" />
    <glyph glyph-name="tilde" unicode="&#x2dc;" 
d="M454 664q-30 -105 -90 -105q-32 0 -72 31q-32 26 -49 26q-23 0 -48 -62l-49 19q38 103 97 103q26 0 66 -30q36 -28 52 -28q23 0 42 62z" />
    <glyph glyph-name="macron" unicode="&#xaf;" 
d="M157 586v60h287v-60h-287z" />
    <glyph glyph-name="breve" unicode="&#x2d8;" 
d="M452 682q-1 -61 -42 -93q-39 -31 -103 -31q-155 0 -159 124h60q-3 -74 92 -74q92 0 92 74h60z" />
    <glyph glyph-name="dotaccent" unicode="&#x2d9;" 
d="M336 659q12 -18 12 -42t-12 -42q-13 -21 -36 -21t-36 21q-12 18 -12 42t12 42q13 21 36 21t36 -21z" />
    <glyph glyph-name="dieresis" unicode="&#xa8;" 
d="M244 659q12 -18 12 -42t-12 -42q-13 -21 -36 -21t-36 21q-12 18 -12 42t12 42q13 21 36 21t36 -21zM428 659q12 -18 12 -42t-12 -42q-13 -21 -36 -21t-36 21q-12 18 -12 42t12 42q13 21 36 21t36 -21z" />
    <glyph glyph-name="ring" unicode="&#x2da;" 
d="M362 656q25 -26 25 -61q0 -36 -25 -61q-26 -26 -62 -26t-61 26q-26 25 -26 61q0 35 26 61q25 25 61 25t62 -25zM267 627q-14 -13 -14 -32t14 -33t33 -14q20 0 33 14q14 14 14 33t-14 32q-14 14 -33 14t-33 -14z" />
    <glyph glyph-name="cedilla" unicode="&#xb8;" 
d="M328 -42q80 -4 80 -71q0 -34 -30 -56q-28 -21 -63 -21q-38 0 -102 29l20 51q42 -20 74 -20q31 0 31 20q0 21 -35 28q7 -2 -50 4l33 91h60z" />
    <glyph glyph-name="hungarumlaut" unicode="&#x2dd;" 
d="M306 625l-186 -82l-31 41l176 99zM511 625l-186 -82l-31 41l176 99z" />
    <glyph glyph-name="ogonek" unicode="&#x2db;" 
d="M361 -155q-58 -22 -96 -22q-50 0 -82 21q-38 25 -38 72q0 69 86 107h98l-30 -20q-25 -15 -38 -25q-46 -33 -46 -60q0 -40 48 -40q49 0 98 26v-59z" />
    <glyph glyph-name="caron" unicode="&#x2c7;" 
d="M300 625l128 62l23 -36l-151 -102l-151 102l24 36z" />
    <glyph glyph-name="emdash" unicode="&#x2014;" 
d="M0 292h600v-63h-600v63z" />
    <glyph glyph-name="AE" unicode="&#xc6;" 
d="M284 607h-27l-80 -341h107v341zM284 206h-120l-53 -219l-68 18l168 662h297v-60h-157v-220h145v-60h-145v-267h157v-60h-224v206z" />
    <glyph glyph-name="ordfeminine" unicode="&#xaa;" 
d="M249 428l-32 -90l-63 20l111 309h70l111 -309l-63 -20l-32 90h-102zM300 580l-33 -97h66zM140 291h320v-55h-320v55z" />
    <glyph glyph-name="Lslash" unicode="&#x141;" 
d="M83 267v66l100 38v296h67v-271l99 38v-67l-99 -38v-269h274v-60h-341v304z" />
    <glyph glyph-name="Oslash" unicode="&#xd8;" 
d="M390 565q-28 48 -83 48q-54 0 -79 -44q-36 -61 -36 -223q0 -96 5 -134zM215 124v-2q28 -68 92 -68q50 0 75 38q40 61 40 230q0 90 -8 163v2h-2zM145 -3l-51 26l52 97q-24 82 -24 214q0 135 22 206q41 136 163 136q68 0 116 -50l32 58l52 -27l-48 -88q33 -83 33 -235
q0 -343 -185 -343q-81 0 -129 65z" />
    <glyph glyph-name="OE" unicode="&#x152;" 
d="M531 667v-60h-154v-220h142v-60h-142v-267h154v-60h-220q-9 -4 -25 -7q-16 -2 -26 -2q-191 0 -191 344q0 341 186 341q41 0 60 -9h216zM310 597q-18 16 -55 16q-56 0 -82 -47q-34 -63 -34 -231q0 -134 19 -195q26 -86 97 -86q31 0 55 19v524z" />
    <glyph glyph-name="ordmasculine" unicode="&#xba;" 
d="M140 291h320v-55h-320v55zM400 625q30 -45 30 -114t-30 -113q-34 -51 -100 -51t-100 51q-29 44 -29 113q0 70 29 114q34 51 100 51t100 -51zM238 511q0 -109 62 -109q63 0 63 109q0 110 -63 110q-62 0 -62 -110z" />
    <glyph glyph-name="ae" unicode="&#xe6;" 
d="M291 461h-42l-76 -259h118v259zM291 142h-137l-48 -155l-66 24l164 510h332v-60h-178v-156h145v-60h-145v-185h178v-60h-245v142z" />
    <glyph glyph-name="dotlessi" unicode="&#x131;" 
d="M193 60h73v401h-73v60h214v-60h-74v-401h74v-60h-214v60z" />
    <glyph glyph-name="lslash" unicode="&#x142;" 
d="M237 338l87 33v-67l-87 -33v-211h273v-60h-340v246l-87 -33v67l87 33v208h67v-183z" />
    <glyph glyph-name="oslash" unicode="&#xf8;" 
d="M365 442q-25 25 -65 25q-115 0 -115 -207q0 -67 15 -119zM233 80q29 -26 67 -26q115 0 115 206q0 71 -16 123zM417 538l50 -28l-29 -55q47 -71 47 -195q0 -138 -57 -208q-49 -61 -128 -61q-57 0 -98 32l-21 -39l-51 27l31 57q-46 67 -46 192q0 139 57 210q49 60 128 60
q56 0 96 -30z" />
    <glyph glyph-name="oe" unicode="&#x153;" 
d="M541 521v-60h-178v-156h146v-60h-146v-185h178v-60h-238q-9 -4 -25 -7q-18 -2 -27 -2q-103 0 -152 88q-39 70 -39 181q0 143 61 214q49 56 124 56q35 0 58 -9h238zM296 453q-23 14 -51 14q-115 0 -115 -207q0 -206 115 -206q28 0 51 14v385z" />
    <glyph glyph-name="germandbls" unicode="&#xdf;" 
d="M277 308q65 9 65 87q0 72 -64 72q-42 0 -56 -29q-9 -19 -9 -66v-372h-67v419q0 37 33 71q40 40 106 40q57 0 92 -35q35 -36 35 -93q0 -79 -55 -111q46 -12 72 -53q25 -38 25 -87q0 -76 -45 -117q-38 -34 -90 -34h-61v60h46q80 0 80 88q0 103 -107 100v60z" />
    <glyph glyph-name="uni00B9" unicode="&#xb9;" 
d="M281 609l-62 -21l-18 45l140 47v-298h58v-50h-192v50h74v227z" />
    <glyph glyph-name="logicalnot" unicode="&#xac;" 
d="M522 405h-488v44h532v-276h-44v232z" />
    <glyph glyph-name="uni00B5" unicode="&#xb5;" 
d="M402 44q-38 -53 -100 -53q-65 0 -103 49v-251h-67v732h67v-344q0 -66 39 -99q27 -24 59 -24q52 0 81 49q24 40 24 95v323h67v-521h-67v44z" />
    <glyph glyph-name="trademark" unicode="&#x2122;" 
d="M581 394h-40v242h-2l-96 -242h-26l-93 242h-2v-242h-40v282h68l81 -199l84 199h66v-282zM248 636h-94v-242h-40v242h-95v40h229v-40z" />
    <glyph glyph-name="Eth" unicode="&#xd0;" 
d="M119 607v60h176q109 0 157 -64q56 -76 56 -270q0 -152 -29 -222q-47 -111 -182 -111h-178v60h54v243h-54v60h54v244h-54zM240 363h79v-60h-79v-243h55q73 0 102 42q41 59 41 231q0 170 -41 232q-28 42 -86 42h-71v-244z" />
    <glyph glyph-name="onehalf" unicode="&#xbd;" 
d="M123 609l-62 -21l-18 45l140 47v-298h58v-50h-192v50h74v227zM517 651l-377 -664l-53 26l377 667zM334 42l132 152q31 37 31 57q0 43 -46 43q-54 0 -61 -65l-57 7q13 108 117 108q45 0 75 -23q32 -25 32 -68q0 -39 -45 -90l-100 -113h144v-50h-222v42z" />
    <glyph glyph-name="plusminus" unicode="&#xb1;" 
d="M566 385h-244v-244h-44v244h-244v44h244v244h44v-244h244v-44zM566 47h-532v44h532v-44z" />
    <glyph glyph-name="Thorn" unicode="&#xde;" 
d="M229 0h-67v667h67v-148h78q89 0 136 -46q48 -46 48 -131q0 -90 -46 -143q-45 -50 -116 -50h-100v-149zM229 209h94q98 0 98 133q0 117 -115 117h-77v-250z" />
    <glyph glyph-name="onequarter" unicode="&#xbc;" 
d="M333 78l58 267l57 -10l-46 -207h74v162h60v-162h28v-50h-28v-78h-60v78h-143zM116 609l-62 -21l-18 45l140 47v-298h58v-50h-192v50h74v227zM513 651l-377 -664l-53 26l377 667z" />
    <glyph glyph-name="divide" unicode="&#xf7;" 
d="M566 338h-532v44h532v-44zM331 175q-13 -13 -31 -13t-30 13q-13 12 -13 30t13 31q12 12 30 12t31 -12q12 -13 12 -31t-12 -30zM331 485q-13 -13 -31 -13t-30 13q-13 12 -13 30t13 31q12 12 30 12t31 -12q12 -13 12 -31t-12 -30z" />
    <glyph glyph-name="brokenbar" unicode="&#xa6;" 
d="M322 792v-360h-44v360h44zM322 72v-360h-44v360h44z" />
    <glyph glyph-name="degree" unicode="&#xb0;" 
d="M163 686q57 56 137 56t137 -56q56 -57 56 -137t-56 -136q-57 -57 -137 -57t-137 57q-56 56 -56 136t56 137zM193 442q45 -44 107 -44t107 44q44 45 44 107t-44 107q-45 44 -107 44t-107 -44q-44 -45 -44 -107t44 -107z" />
    <glyph glyph-name="thorn" unicode="&#xfe;" 
d="M229 0h-67v521h67v-112h95q85 0 129 -42q39 -38 39 -100q0 -77 -48 -119q-42 -36 -103 -36h-112v-112zM321 172q101 0 101 90q0 87 -101 87h-92v-177h92z" />
    <glyph glyph-name="threequarters" unicode="&#xbe;" 
d="M334 78l58 267l57 -10l-46 -207h74v162h60v-162h28v-50h-28v-78h-60v78h-143zM514 651l-377 -664l-53 26l377 667zM257 634l-86 -79q38 -4 64 -27q28 -25 28 -62q0 -49 -40 -86q-59 -54 -182 -47v50q162 -2 162 82q0 46 -70 46q-17 0 -53 -6v39l92 82h-136v50h221v-42z
" />
    <glyph glyph-name="uni00B2" unicode="&#xb2;" 
d="M189 374l132 152q31 37 31 57q0 43 -46 43q-54 0 -61 -65l-57 7q13 108 117 108q45 0 75 -23q32 -25 32 -68q0 -39 -45 -90l-100 -113h144v-50h-222v42z" />
    <glyph glyph-name="registered" unicode="&#xae;" 
d="M88 91q-88 99 -88 241q0 141 88 241q88 99 213 99q124 0 212 -99q87 -100 87 -241q0 -142 -87 -241q-88 -100 -212 -100q-125 0 -213 100zM473 123q77 85 77 209q0 123 -81 210q-75 80 -168 80q-96 0 -171 -80q-80 -86 -80 -210q0 -119 74 -205t177 -86q99 0 172 82z
M450 141h-59l-95 176h-56v-176h-50v381h145q118 0 118 -101q0 -100 -104 -104zM240 367h91q72 0 72 56q0 31 -23 42q-15 7 -54 7h-86v-105z" />
    <glyph glyph-name="minus" unicode="&#x2212;" 
d="M566 338h-532v44h532v-44z" />
    <glyph glyph-name="eth" unicode="&#xf0;" 
d="M173 461h-54v60h174q114 0 163 -55q52 -58 52 -199q0 -138 -37 -195q-48 -72 -178 -72h-174v60h54v170h-54v60h54v171zM319 290v-60h-79v-170h71q67 0 97 44q30 46 30 156q0 114 -33 161q-30 40 -96 40h-69v-171h79z" />
    <glyph glyph-name="multiply" unicode="&#xd7;" 
d="M535 94l-235 235l-235 -235l-31 32l235 234l-235 235l31 31l235 -235l235 235l31 -31l-235 -235l235 -234z" />
    <glyph glyph-name="uni00B3" unicode="&#xb3;" 
d="M408 634l-86 -79q38 -4 64 -27q28 -25 28 -62q0 -49 -40 -86q-59 -55 -182 -48v50q162 -2 162 83q0 46 -70 46q-17 0 -53 -6v39l92 82h-136v50h221v-42z" />
    <glyph glyph-name="copyright" unicode="&#xa9;" 
d="M511 576q86 -99 86 -242t-86 -243t-210 -100t-211 100q-87 101 -87 243t87 242t211 100t210 -100zM132 549q-79 -84 -79 -215q0 -119 75 -206q73 -87 173 -87q89 0 164 79q82 87 82 214q0 116 -73 204t-173 88q-97 0 -169 -77zM449 272q-6 -59 -45 -97q-38 -37 -90 -37
q-72 0 -119 58q-46 56 -46 141q0 86 44 141q45 56 119 56q54 0 91 -34q38 -35 46 -95h-50q-12 79 -86 79q-114 0 -114 -146q0 -64 29 -105q31 -45 86 -45q76 0 85 84h50z" />
    <glyph glyph-name="Aacute" unicode="&#xc1;" 
d="M209 206l-52 -219l-66 18l169 662h80l169 -662l-66 -18l-52 219h-182zM301 578h-2l-74 -312h150zM413 778l-187 -82l-26 44l177 101z" />
    <glyph glyph-name="Acircumflex" unicode="&#xc2;" 
d="M209 206l-52 -219l-66 18l169 662h80l169 -662l-66 -18l-52 219h-182zM301 578h-2l-74 -312h150zM173 697l-24 36l151 102l151 -102l-23 -36l-128 62z" />
    <glyph glyph-name="Adieresis" unicode="&#xc4;" 
d="M209 206l-52 -219l-66 18l169 662h80l169 -662l-66 -18l-52 219h-182zM301 578h-2l-74 -312h150zM244 805q12 -18 12 -42t-12 -42q-13 -21 -36 -21t-36 21q-12 18 -12 42t12 42q13 21 36 21t36 -21zM428 805q12 -18 12 -42t-12 -42q-13 -21 -36 -21t-36 21q-12 18 -12 42
t12 42q13 21 36 21t36 -21z" />
    <glyph glyph-name="Agrave" unicode="&#xc0;" 
d="M209 206l-52 -219l-66 18l169 662h80l169 -662l-66 -18l-52 219h-182zM301 578h-2l-74 -312h150zM413 740l-26 -44l-187 82l36 63z" />
    <glyph glyph-name="Aring" unicode="&#xc5;" 
d="M209 206l-52 -219l-66 18l169 662h80l169 -662l-66 -18l-52 219h-182zM301 578h-2l-74 -312h150zM362 822q25 -26 25 -61q0 -36 -25 -61q-26 -26 -62 -26t-61 26q-26 25 -26 61q0 35 26 61q25 25 61 25t62 -25zM267 793q-14 -13 -14 -32t14 -33t33 -14q20 0 33 14
q14 14 14 33t-14 32q-14 14 -33 14t-33 -14z" />
    <glyph glyph-name="Atilde" unicode="&#xc3;" 
d="M209 206l-52 -219l-66 18l169 662h80l169 -662l-66 -18l-52 219h-182zM301 578h-2l-74 -312h150zM454 810q-30 -105 -90 -105q-32 0 -72 31q-32 26 -49 26q-23 0 -48 -62l-49 19q38 103 97 103q26 0 66 -30q36 -28 52 -28q23 0 42 62z" />
    <glyph glyph-name="Ccedilla" unicode="&#xc7;" 
d="M487 100q-59 -94 -148 -107l-11 -35q80 -4 80 -71q0 -34 -30 -56q-28 -21 -63 -21q-38 0 -102 29l20 51q42 -20 74 -20q31 0 31 20q0 21 -35 28q7 -2 -50 4l26 72q-165 30 -165 339q0 343 200 343q104 0 163 -108l-57 -34q-39 79 -106 79q-130 0 -130 -280
q0 -279 130 -279q67 0 118 84z" />
    <glyph glyph-name="Eacute" unicode="&#xc9;" 
d="M157 667h325v-60h-258v-220h213v-60h-213v-267h258v-60h-325v667zM413 778l-187 -82l-26 44l177 101z" />
    <glyph glyph-name="Ecircumflex" unicode="&#xca;" 
d="M157 667h325v-60h-258v-220h213v-60h-213v-267h258v-60h-325v667zM173 697l-24 36l151 102l151 -102l-23 -36l-128 62z" />
    <glyph glyph-name="Edieresis" unicode="&#xcb;" 
d="M157 667h325v-60h-258v-220h213v-60h-213v-267h258v-60h-325v667zM244 805q12 -18 12 -42t-12 -42q-13 -21 -36 -21t-36 21q-12 18 -12 42t12 42q13 21 36 21t36 -21zM428 805q12 -18 12 -42t-12 -42q-13 -21 -36 -21t-36 21q-12 18 -12 42t12 42q13 21 36 21t36 -21z
" />
    <glyph glyph-name="Egrave" unicode="&#xc8;" 
d="M157 667h325v-60h-258v-220h213v-60h-213v-267h258v-60h-325v667zM413 740l-26 -44l-187 82l36 63z" />
    <glyph glyph-name="Iacute" unicode="&#xcd;" 
d="M266 607h-90v60h248v-60h-91v-547h91v-60h-248v60h90v547zM413 778l-187 -82l-26 44l177 101z" />
    <glyph glyph-name="Icircumflex" unicode="&#xce;" 
d="M266 607h-90v60h248v-60h-91v-547h91v-60h-248v60h90v547zM173 697l-24 36l151 102l151 -102l-23 -36l-128 62z" />
    <glyph glyph-name="Idieresis" unicode="&#xcf;" 
d="M266 607h-90v60h248v-60h-91v-547h91v-60h-248v60h90v547zM244 805q12 -18 12 -42t-12 -42q-13 -21 -36 -21t-36 21q-12 18 -12 42t12 42q13 21 36 21t36 -21zM428 805q12 -18 12 -42t-12 -42q-13 -21 -36 -21t-36 21q-12 18 -12 42t12 42q13 21 36 21t36 -21z" />
    <glyph glyph-name="Igrave" unicode="&#xcc;" 
d="M266 607h-90v60h248v-60h-91v-547h91v-60h-248v60h90v547zM413 740l-26 -44l-187 82l36 63z" />
    <glyph glyph-name="Ntilde" unicode="&#xd1;" 
d="M126 667h84l198 -561l2 2l-3 149v410h67v-667h-84l-198 562l-2 -2l3 -151v-409h-67v667zM454 810q-30 -105 -90 -105q-32 0 -72 31q-32 26 -49 26q-23 0 -48 -62l-49 19q38 103 97 103q26 0 66 -30q36 -28 52 -28q23 0 42 62z" />
    <glyph glyph-name="Oacute" unicode="&#xd3;" 
d="M485 334q0 -130 -22 -203q-42 -140 -163 -140q-122 0 -164 139q-21 71 -21 204q0 342 185 342t185 -342zM198 510q-13 -54 -13 -176q0 -145 22 -207q26 -73 93 -73q76 0 101 97q14 54 14 183q0 136 -13 187q-24 92 -102 92q-77 0 -102 -103zM413 778l-187 -82l-26 44
l177 101z" />
    <glyph glyph-name="Ocircumflex" unicode="&#xd4;" 
d="M485 334q0 -130 -22 -203q-42 -140 -163 -140q-122 0 -164 139q-21 71 -21 204q0 342 185 342t185 -342zM198 510q-13 -54 -13 -176q0 -145 22 -207q26 -73 93 -73q76 0 101 97q14 54 14 183q0 136 -13 187q-24 92 -102 92q-77 0 -102 -103zM173 697l-24 36l151 102
l151 -102l-23 -36l-128 62z" />
    <glyph glyph-name="Odieresis" unicode="&#xd6;" 
d="M485 334q0 -130 -22 -203q-42 -140 -163 -140q-122 0 -164 139q-21 71 -21 204q0 342 185 342t185 -342zM198 510q-13 -54 -13 -176q0 -145 22 -207q26 -73 93 -73q76 0 101 97q14 54 14 183q0 136 -13 187q-24 92 -102 92q-77 0 -102 -103zM244 805q12 -18 12 -42
t-12 -42q-13 -21 -36 -21t-36 21q-12 18 -12 42t12 42q13 21 36 21t36 -21zM428 805q12 -18 12 -42t-12 -42q-13 -21 -36 -21t-36 21q-12 18 -12 42t12 42q13 21 36 21t36 -21z" />
    <glyph glyph-name="Ograve" unicode="&#xd2;" 
d="M485 334q0 -130 -22 -203q-42 -140 -163 -140q-122 0 -164 139q-21 71 -21 204q0 342 185 342t185 -342zM198 510q-13 -54 -13 -176q0 -145 22 -207q26 -73 93 -73q76 0 101 97q14 54 14 183q0 136 -13 187q-24 92 -102 92q-77 0 -102 -103zM413 740l-26 -44l-187 82
l36 63z" />
    <glyph glyph-name="Otilde" unicode="&#xd5;" 
d="M485 334q0 -130 -22 -203q-42 -140 -163 -140q-122 0 -164 139q-21 71 -21 204q0 342 185 342t185 -342zM198 510q-13 -54 -13 -176q0 -145 22 -207q26 -73 93 -73q76 0 101 97q14 54 14 183q0 136 -13 187q-24 92 -102 92q-77 0 -102 -103zM454 810q-30 -105 -90 -105
q-32 0 -72 31q-32 26 -49 26q-23 0 -48 -62l-49 19q38 103 97 103q26 0 66 -30q36 -28 52 -28q23 0 42 62z" />
    <glyph glyph-name="Scaron" unicode="&#x160;" 
d="M396 515q-22 98 -92 98q-88 0 -88 -107q0 -41 19 -64q20 -24 97 -70q72 -43 100 -76q38 -46 38 -117q0 -83 -42 -133q-45 -55 -126 -55q-154 0 -171 184l67 9q8 -65 26 -93q24 -37 80 -37q99 0 99 119q0 59 -37 97q-21 22 -89 61q-70 41 -93 68q-35 40 -35 107
q0 70 42 119q44 51 113 51q126 0 157 -151zM300 771l128 62l23 -36l-151 -102l-151 102l24 36z" />
    <glyph glyph-name="Uacute" unicode="&#xda;" 
d="M204 667v-485q0 -128 96 -128q97 0 97 128v485h67v-505q0 -78 -45 -124q-45 -47 -119 -47q-75 0 -119 47q-44 46 -44 121v508h67zM413 778l-187 -82l-26 44l177 101z" />
    <glyph glyph-name="Ucircumflex" unicode="&#xdb;" 
d="M204 667v-485q0 -128 96 -128q97 0 97 128v485h67v-505q0 -78 -45 -124q-45 -47 -119 -47q-75 0 -119 47q-44 46 -44 121v508h67zM173 697l-24 36l151 102l151 -102l-23 -36l-128 62z" />
    <glyph glyph-name="Udieresis" unicode="&#xdc;" 
d="M204 667v-485q0 -128 96 -128q97 0 97 128v485h67v-505q0 -78 -45 -124q-45 -47 -119 -47q-75 0 -119 47q-44 46 -44 121v508h67zM244 805q12 -18 12 -42t-12 -42q-13 -21 -36 -21t-36 21q-12 18 -12 42t12 42q13 21 36 21t36 -21zM428 805q12 -18 12 -42t-12 -42
q-13 -21 -36 -21t-36 21q-12 18 -12 42t12 42q13 21 36 21t36 -21z" />
    <glyph glyph-name="Ugrave" unicode="&#xd9;" 
d="M204 667v-485q0 -128 96 -128q97 0 97 128v485h67v-505q0 -78 -45 -124q-45 -47 -119 -47q-75 0 -119 47q-44 46 -44 121v508h67zM413 740l-26 -44l-187 82l36 63z" />
    <glyph glyph-name="Yacute" unicode="&#xdd;" 
d="M444 680l62 -25l-173 -392v-263h-67v263l-172 392l62 25l144 -339zM413 778l-187 -82l-26 44l177 101z" />
    <glyph glyph-name="Ydieresis" unicode="&#x178;" 
d="M444 680l62 -25l-173 -392v-263h-67v263l-172 392l62 25l144 -339zM244 805q12 -18 12 -42t-12 -42q-13 -21 -36 -21t-36 21q-12 18 -12 42t12 42q13 21 36 21t36 -21zM428 805q12 -18 12 -42t-12 -42q-13 -21 -36 -21t-36 21q-12 18 -12 42t12 42q13 21 36 21t36 -21z
" />
    <glyph glyph-name="Zcaron" unicode="&#x17d;" 
d="M387 607h-254v60h355l-282 -607h290v-60h-392zM300 771l128 62l23 -36l-151 -102l-151 102l24 36z" />
    <glyph glyph-name="aacute" unicode="&#xe1;" 
d="M208 142l-49 -155l-66 24l164 510h86l164 -510l-66 -24l-48 155h-185zM300 443l-74 -241h148zM413 632l-187 -82l-26 44l177 101z" />
    <glyph glyph-name="acircumflex" unicode="&#xe2;" 
d="M208 142l-49 -155l-66 24l164 510h86l164 -510l-66 -24l-48 155h-185zM300 443l-74 -241h148zM173 551l-24 36l151 102l151 -102l-23 -36l-128 62z" />
    <glyph glyph-name="adieresis" unicode="&#xe4;" 
d="M208 142l-49 -155l-66 24l164 510h86l164 -510l-66 -24l-48 155h-185zM300 443l-74 -241h148zM244 659q12 -18 12 -42t-12 -42q-13 -21 -36 -21t-36 21q-12 18 -12 42t12 42q13 21 36 21t36 -21zM428 659q12 -18 12 -42t-12 -42q-13 -21 -36 -21t-36 21q-12 18 -12 42
t12 42q13 21 36 21t36 -21z" />
    <glyph glyph-name="agrave" unicode="&#xe0;" 
d="M208 142l-49 -155l-66 24l164 510h86l164 -510l-66 -24l-48 155h-185zM300 443l-74 -241h148zM413 594l-26 -44l-187 82l36 63z" />
    <glyph glyph-name="aring" unicode="&#xe5;" 
d="M208 142l-49 -155l-66 24l164 510h86l164 -510l-66 -24l-48 155h-185zM300 443l-74 -241h148zM362 676q25 -26 25 -61q0 -36 -25 -61q-26 -26 -62 -26t-61 26q-26 25 -26 61q0 35 26 61q25 25 61 25t62 -25zM267 647q-14 -13 -14 -32t14 -33t33 -14q20 0 33 14
q14 14 14 33t-14 32q-14 14 -33 14t-33 -14z" />
    <glyph glyph-name="atilde" unicode="&#xe3;" 
d="M208 142l-49 -155l-66 24l164 510h86l164 -510l-66 -24l-48 155h-185zM300 443l-74 -241h148zM454 664q-30 -105 -90 -105q-32 0 -72 31q-32 26 -49 26q-23 0 -48 -62l-49 19q38 103 97 103q26 0 66 -30q36 -28 52 -28q23 0 42 62z" />
    <glyph glyph-name="ccedilla" unicode="&#xe7;" 
d="M487 100q-60 -96 -148 -108l-11 -34q80 -4 80 -71q0 -34 -30 -56q-28 -21 -63 -21q-38 0 -102 29l20 51q42 -20 74 -20q31 0 31 20q0 21 -35 28q7 -2 -50 4l26 72q-86 14 -129 96q-36 69 -36 170q0 141 66 213q52 57 128 57q105 0 165 -111l-61 -31q-41 79 -103 79
q-69 0 -101 -73q-24 -53 -24 -133q0 -207 125 -207q68 0 123 84z" />
    <glyph glyph-name="eacute" unicode="&#xe9;" 
d="M157 521h325v-60h-258v-156h213v-60h-213v-185h258v-60h-325v521zM413 632l-187 -82l-26 44l177 101z" />
    <glyph glyph-name="ecircumflex" unicode="&#xea;" 
d="M157 521h325v-60h-258v-156h213v-60h-213v-185h258v-60h-325v521zM173 551l-24 36l151 102l151 -102l-23 -36l-128 62z" />
    <glyph glyph-name="edieresis" unicode="&#xeb;" 
d="M157 521h325v-60h-258v-156h213v-60h-213v-185h258v-60h-325v521zM244 659q12 -18 12 -42t-12 -42q-13 -21 -36 -21t-36 21q-12 18 -12 42t12 42q13 21 36 21t36 -21zM428 659q12 -18 12 -42t-12 -42q-13 -21 -36 -21t-36 21q-12 18 -12 42t12 42q13 21 36 21t36 -21z
" />
    <glyph glyph-name="egrave" unicode="&#xe8;" 
d="M157 521h325v-60h-258v-156h213v-60h-213v-185h258v-60h-325v521zM413 594l-26 -44l-187 82l36 63z" />
    <glyph glyph-name="iacute" unicode="&#xed;" 
d="M193 60h73v401h-73v60h214v-60h-74v-401h74v-60h-214v60zM413 632l-187 -82l-26 44l177 101z" />
    <glyph glyph-name="icircumflex" unicode="&#xee;" 
d="M193 60h73v401h-73v60h214v-60h-74v-401h74v-60h-214v60zM173 551l-24 36l151 102l151 -102l-23 -36l-128 62z" />
    <glyph glyph-name="idieresis" unicode="&#xef;" 
d="M193 60h73v401h-73v60h214v-60h-74v-401h74v-60h-214v60zM244 659q12 -18 12 -42t-12 -42q-13 -21 -36 -21t-36 21q-12 18 -12 42t12 42q13 21 36 21t36 -21zM428 659q12 -18 12 -42t-12 -42q-13 -21 -36 -21t-36 21q-12 18 -12 42t12 42q13 21 36 21t36 -21z" />
    <glyph glyph-name="igrave" unicode="&#xec;" 
d="M193 60h73v401h-73v60h214v-60h-74v-401h74v-60h-214v60zM413 594l-26 -44l-187 82l36 63z" />
    <glyph glyph-name="ntilde" unicode="&#xf1;" 
d="M126 521h83l202 -439l2 2l-6 135v302h67v-521h-83l-202 439l-2 -2l6 -136v-301h-67v521zM454 664q-30 -105 -90 -105q-32 0 -72 31q-32 26 -49 26q-23 0 -48 -62l-49 19q38 103 97 103q26 0 66 -30q36 -28 52 -28q23 0 42 62z" />
    <glyph glyph-name="oacute" unicode="&#xf3;" 
d="M424 474q61 -71 61 -214q0 -86 -24 -150q-45 -119 -161 -119q-75 0 -124 56q-61 70 -61 213t60 213q49 57 125 57q75 0 124 -56zM185 260q0 -206 115 -206t115 206q0 207 -115 207t-115 -207zM413 632l-187 -82l-26 44l177 101z" />
    <glyph glyph-name="ocircumflex" unicode="&#xf4;" 
d="M424 474q61 -71 61 -214q0 -86 -24 -150q-45 -119 -161 -119q-75 0 -124 56q-61 70 -61 213t60 213q49 57 125 57q75 0 124 -56zM185 260q0 -206 115 -206t115 206q0 207 -115 207t-115 -207zM173 551l-24 36l151 102l151 -102l-23 -36l-128 62z" />
    <glyph glyph-name="odieresis" unicode="&#xf6;" 
d="M424 474q61 -71 61 -214q0 -86 -24 -150q-45 -119 -161 -119q-75 0 -124 56q-61 70 -61 213t60 213q49 57 125 57q75 0 124 -56zM185 260q0 -206 115 -206t115 206q0 207 -115 207t-115 -207zM244 659q12 -18 12 -42t-12 -42q-13 -21 -36 -21t-36 21q-12 18 -12 42t12 42
q13 21 36 21t36 -21zM428 659q12 -18 12 -42t-12 -42q-13 -21 -36 -21t-36 21q-12 18 -12 42t12 42q13 21 36 21t36 -21z" />
    <glyph glyph-name="ograve" unicode="&#xf2;" 
d="M424 474q61 -71 61 -214q0 -86 -24 -150q-45 -119 -161 -119q-75 0 -124 56q-61 70 -61 213t60 213q49 57 125 57q75 0 124 -56zM185 260q0 -206 115 -206t115 206q0 207 -115 207t-115 -207zM413 594l-26 -44l-187 82l36 63z" />
    <glyph glyph-name="otilde" unicode="&#xf5;" 
d="M424 474q61 -71 61 -214q0 -86 -24 -150q-45 -119 -161 -119q-75 0 -124 56q-61 70 -61 213t60 213q49 57 125 57q75 0 124 -56zM185 260q0 -206 115 -206t115 206q0 207 -115 207t-115 -207zM454 664q-30 -105 -90 -105q-32 0 -72 31q-32 26 -49 26q-23 0 -48 -62
l-49 19q38 103 97 103q26 0 66 -30q36 -28 52 -28q23 0 42 62z" />
    <glyph glyph-name="scaron" unicode="&#x161;" 
d="M191 165q23 -111 114 -111q43 0 70 22q28 24 28 66t-33 67q-15 11 -72 34q-82 35 -102 50q-46 35 -46 100q0 64 46 102q43 35 107 35q125 0 159 -131l-64 -19q-20 87 -96 87q-35 0 -59 -17q-26 -19 -26 -52q0 -49 70 -81l111 -49q72 -40 72 -122q0 -73 -46 -115
q-45 -40 -119 -40q-71 0 -117 43q-45 41 -57 112zM300 625l128 62l23 -36l-151 -102l-151 102l24 36z" />
    <glyph glyph-name="uacute" unicode="&#xfa;" 
d="M204 521v-355q0 -59 20 -84q21 -28 71 -28q60 0 83 28q19 24 19 84v355h67v-387q0 -58 -39 -97q-45 -46 -125 -46t-124 45q-39 40 -39 102v383h67zM413 632l-187 -82l-26 44l177 101z" />
    <glyph glyph-name="ucircumflex" unicode="&#xfb;" 
d="M204 521v-355q0 -59 20 -84q21 -28 71 -28q60 0 83 28q19 24 19 84v355h67v-387q0 -58 -39 -97q-45 -46 -125 -46t-124 45q-39 40 -39 102v383h67zM173 551l-24 36l151 102l151 -102l-23 -36l-128 62z" />
    <glyph glyph-name="udieresis" unicode="&#xfc;" 
d="M204 521v-355q0 -59 20 -84q21 -28 71 -28q60 0 83 28q19 24 19 84v355h67v-387q0 -58 -39 -97q-45 -46 -125 -46t-124 45q-39 40 -39 102v383h67zM244 659q12 -18 12 -42t-12 -42q-13 -21 -36 -21t-36 21q-12 18 -12 42t12 42q13 21 36 21t36 -21zM428 659
q12 -18 12 -42t-12 -42q-13 -21 -36 -21t-36 21q-12 18 -12 42t12 42q13 21 36 21t36 -21z" />
    <glyph glyph-name="ugrave" unicode="&#xf9;" 
d="M204 521v-355q0 -59 20 -84q21 -28 71 -28q60 0 83 28q19 24 19 84v355h67v-387q0 -58 -39 -97q-45 -46 -125 -46t-124 45q-39 40 -39 102v383h67zM413 594l-26 -44l-187 82l36 63z" />
    <glyph glyph-name="yacute" unicode="&#xfd;" 
d="M439 534l63 -33l-169 -300v-201h-67v201l-168 300l63 33l139 -268zM413 632l-187 -82l-26 44l177 101z" />
    <glyph glyph-name="ydieresis" unicode="&#xff;" 
d="M439 534l63 -33l-169 -300v-201h-67v201l-168 300l63 33l139 -268zM244 659q12 -18 12 -42t-12 -42q-13 -21 -36 -21t-36 21q-12 18 -12 42t12 42q13 21 36 21t36 -21zM428 659q12 -18 12 -42t-12 -42q-13 -21 -36 -21t-36 21q-12 18 -12 42t12 42q13 21 36 21t36 -21z
" />
    <glyph glyph-name="zcaron" unicode="&#x17e;" 
d="M377 461h-244v60h355l-271 -461h279v-60h-392zM300 625l128 62l23 -36l-151 -102l-151 102l24 36z" />
    <glyph glyph-name="uniF638" unicode="&#xf638;" 
d="M208 107q27 -53 92 -53q61 0 84 42q32 59 32 237q0 25 -5 145zM390 562q-26 51 -90 51q-60 0 -83 -40q-33 -57 -33 -227q0 -26 5 -151v-2h2zM471 533q14 -53 14 -200q0 -154 -16 -211q-39 -131 -170 -131q-132 0 -169 128q-17 56 -17 214q0 170 20 230q38 113 166 113
q134 0 172 -143z" />
    <glyph glyph-name="peseta" unicode="&#x20a7;" 
d="M417 268h-77v55h213v-55h-76v-268h-60v268zM114 0h-67v667h145q89 0 136 -46q48 -46 48 -131q0 -90 -46 -143q-45 -50 -116 -50h-100v-297zM114 357h94q98 0 98 133q0 117 -115 117h-77v-250z" />
    <glyph glyph-name="quotereversed" unicode="&#x201b;" 
d="M308 667v-61q0 -64 42 -91l-23 -55q-111 58 -111 162v45h92z" />
    <glyph glyph-name="revlogicalnot" unicode="&#x2310;" 
d="M30 0v276h540v-44h-496v-232h-44z" />
    <glyph glyph-name="f_i.dlig" 
d="M540 461h-73v-401h73v-60h-213v60h73v401h-243v-156h152v-60h-152v-245h-67v521h450v-60z" />
    <glyph glyph-name="f_l.dlig" 
d="M430 60h160v-60h-227v461h-220v-156h152v-60h-152v-245h-67v521h354v-461z" />
    <glyph glyph-name="a.superior" 
d="M249 428l-32 -90l-63 20l111 309h70l111 -309l-63 -20l-32 90h-102zM300 580l-33 -97h66zM140 291h320v-55h-320v55z" />
    <glyph glyph-name="uni207F" unicode="&#x207f;" 
d="M186 667h64l117 -274l1 1l-4 76v197h50v-339h-64l-116 270h-2l4 -74v-196h-50v339z" />
    <glyph glyph-name="o.superior" 
d="M140 291h320v-55h-320v55zM400 625q30 -45 30 -114t-30 -113q-34 -51 -100 -51t-100 51q-29 44 -29 113q0 70 29 114q34 51 100 51t100 -51zM238 511q0 -109 62 -109q63 0 63 109q0 110 -63 110q-62 0 -62 -110z" />
    <glyph glyph-name="one.aalt" 
d="M281 609l-62 -21l-18 45l140 47v-298h58v-50h-192v50h74v227z" />
    <glyph glyph-name="two.aalt" 
d="M189 374l132 152q31 37 31 57q0 43 -46 43q-54 0 -61 -65l-57 7q13 108 117 108q45 0 75 -23q32 -25 32 -68q0 -39 -45 -90l-100 -113h144v-50h-222v42z" />
    <glyph glyph-name="three.aalt" 
d="M408 634l-86 -79q38 -4 64 -27q28 -25 28 -62q0 -49 -40 -86q-59 -55 -182 -48v50q162 -2 162 83q0 46 -70 46q-17 0 -53 -6v39l92 82h-136v50h221v-42z" />
    <glyph glyph-name="arrowup" unicode="&#x2191;" 
d="M322 64h-44v460q-75 -49 -123 -49q-16 0 -16 14q0 8 20 21q83 56 123 125q11 21 18 21q8 0 18 -21q40 -69 123 -125q20 -13 20 -21q0 -14 -16 -14q-48 0 -123 49v-460z" />
    <glyph glyph-name="arrowdown" unicode="&#x2193;" 
d="M322 196q75 49 123 49q16 0 16 -14q0 -8 -20 -21q-83 -56 -123 -125q-10 -21 -18 -21q-7 0 -18 21q-40 69 -123 125q-20 13 -20 21q0 14 16 14q48 0 123 -49v460h44v-460z" />
    <glyph glyph-name="Gamma" unicode="&#x393;" 
d="M493 667v-60h-266v-607h-67v667h333z" />
    <glyph glyph-name="Theta" unicode="&#x398;" 
d="M130 77q-85 97 -85 256q0 162 87 260q75 83 168 83q97 0 171 -85q84 -98 84 -258q0 -161 -86 -258q-75 -84 -169 -84q-95 0 -170 86zM176 549q-64 -80 -64 -216q0 -145 71 -223q53 -59 117 -59q65 0 120 65q68 80 68 217q0 142 -70 221q-55 62 -118 62q-69 0 -124 -67z
M418 369v-60h-237v60h237z" />
    <glyph glyph-name="Phi" unicode="&#x3a6;" 
d="M332 680v-62q105 -1 170 -92q58 -82 58 -191q0 -110 -58 -193q-64 -93 -169 -93l-1 -62h-66v62q-105 1 -169 91q-58 81 -58 191t58 193q64 94 169 94v62h66zM266 563q-77 1 -121 -80q-36 -67 -36 -152q0 -83 37 -148q44 -78 120 -79v459zM333 105q77 1 121 79
q36 65 36 149q0 85 -36 150q-43 79 -121 80v-458z" />
    <glyph glyph-name="alpha" unicode="&#x3b1;" 
d="M180 416q-37 -62 -37 -165q0 -94 33 -149q30 -51 76 -51q43 0 78 62q37 66 37 161q0 66 -26 124q-33 72 -88 72q-41 0 -73 -54zM465 538l63 -17l-88 -252l71 -269h-66l-35 154h-2q-40 -163 -159 -163q-64 0 -113 54q-63 69 -63 206q0 138 63 216q51 63 116 63
q124 0 162 -155z" />
    <glyph glyph-name="delta" unicode="&#x3b4;" 
d="M397 336q-37 55 -99 55q-61 0 -97 -58q-31 -50 -31 -115q0 -62 33 -111q36 -56 95 -56q62 0 99 58q33 49 33 114t-33 113zM417 408q83 -86 83 -184q0 -92 -54 -160q-58 -73 -148 -73q-87 0 -144 73q-54 67 -54 155q0 108 56 169q48 52 130 63l-131 135v81h293v-60h-231z
" />
    <glyph glyph-name="epsilon" unicode="&#x3b5;" 
d="M332 250q-66 2 -119 -33q-52 -35 -52 -80q0 -31 34 -56q41 -30 111 -30q88 0 155 75l48 -45q-79 -90 -205 -90q-93 0 -153 43q-60 42 -60 109q0 106 148 140q-115 37 -115 117q0 54 53 92t128 38q100 0 150 -45l-42 -41q-32 26 -104 26q-115 0 -115 -68q0 -38 36 -64
q39 -27 102 -28v-60z" />
    <glyph glyph-name="sigma" unicode="&#x3c3;" 
d="M527 467l-150 11q92 -76 92 -223q0 -133 -78 -208q-58 -56 -117 -56q-91 0 -149 89q-52 80 -52 182q0 123 70 202q57 66 199 66h185v-63zM368 395q-37 72 -97 72q-61 0 -97 -72q-31 -60 -31 -131q0 -85 37 -147q38 -63 92 -63q43 0 80 47q47 59 47 164q0 70 -31 130z" />
    <glyph glyph-name="tau" unicode="&#x3c4;" 
d="M492 461h-154v-461h-67v461h-69q-61 0 -95 -12v56q50 16 86 16h299v-60z" />
    <glyph glyph-name="uniF761" unicode="&#xf761;" 
d="M208 142l-49 -155l-66 24l164 510h86l164 -510l-66 -24l-48 155h-185zM300 443l-74 -241h148z" />
    <glyph glyph-name="uniF762" unicode="&#xf762;" 
d="M321 60q114 0 114 84q0 41 -25 67q-27 27 -73 27h-94v-178h78zM318 298q42 0 65 24q22 23 22 60q0 79 -91 79h-71v-163h75zM122 0v60h54v401h-54v60h164q189 0 189 -139q0 -75 -59 -107q89 -28 89 -126q0 -71 -45 -110q-44 -39 -126 -39h-212z" />
    <glyph glyph-name="uniF763" unicode="&#xf763;" 
d="M487 100q-69 -109 -173 -109q-105 0 -157 86q-43 71 -43 183q0 141 66 213q52 57 128 57q105 0 165 -111l-61 -31q-41 79 -103 79q-69 0 -101 -73q-24 -53 -24 -133q0 -207 125 -207q68 0 123 84z" />
    <glyph glyph-name="uniF764" unicode="&#xf764;" 
d="M119 521h174q114 0 163 -55q52 -58 52 -199q0 -138 -37 -195q-48 -72 -178 -72h-174v60h54v401h-54v60zM240 60h71q67 0 97 44q30 46 30 156q0 114 -33 161q-30 40 -96 40h-69v-401z" />
    <glyph glyph-name="uniF765" unicode="&#xf765;" 
d="M157 521h325v-60h-258v-156h213v-60h-213v-185h258v-60h-325v521z" />
    <glyph glyph-name="uniF766" unicode="&#xf766;" 
d="M176 521h328v-60h-261v-156h219v-60h-219v-245h-67v521z" />
    <glyph glyph-name="uniF767" unicode="&#xf767;" 
d="M476 48q-72 -57 -160 -57q-105 0 -156 87q-41 70 -41 183q0 111 42 182q51 87 153 87q106 0 167 -100l-57 -37q-44 74 -114 74q-68 0 -99 -74q-22 -53 -22 -134q0 -205 123 -205q54 0 97 27v137h-125v60h192v-230z" />
    <glyph glyph-name="uniF768" unicode="&#xf768;" 
d="M130 521h67v-216h206v216h67v-521h-67v245h-206v-245h-67v521z" />
    <glyph glyph-name="uniF769" unicode="&#xf769;" 
d="M193 60h73v401h-73v60h214v-60h-74v-401h74v-60h-214v60z" />
    <glyph glyph-name="uniF76A" unicode="&#xf76a;" 
d="M176 194q-3 -76 20 -108q22 -32 74 -32q101 0 101 104v363h67v-376q0 -62 -40 -105q-47 -49 -128 -49q-84 0 -122 49q-39 49 -39 154h67z" />
    <glyph glyph-name="uniF76B" unicode="&#xf76b;" 
d="M229 299h25l179 235l51 -40l-173 -219l203 -245l-51 -43l-211 257h-23v-244h-67v521h67v-222z" />
    <glyph glyph-name="uniF76C" unicode="&#xf76c;" 
d="M170 521h67v-461h273v-60h-340v521z" />
    <glyph glyph-name="uniF76D" unicode="&#xf76d;" 
d="M183 422h-2l-13 -422h-71l21 521h88l94 -226l94 226h88l21 -521h-71l-13 422h-2l-117 -275z" />
    <glyph glyph-name="uniF76E" unicode="&#xf76e;" 
d="M126 521h83l202 -439l2 2l-6 135v302h67v-521h-83l-202 439l-2 -2l6 -136v-301h-67v521z" />
    <glyph glyph-name="uniF76F" unicode="&#xf76f;" 
d="M424 474q61 -71 61 -214q0 -86 -24 -150q-45 -119 -161 -119q-75 0 -124 56q-61 70 -61 213t60 213q49 57 125 57q75 0 124 -56zM185 260q0 -206 115 -206t115 206q0 207 -115 207t-115 -207z" />
    <glyph glyph-name="uniF770" unicode="&#xf770;" 
d="M229 0h-67v521h162q85 0 129 -42q39 -38 39 -100q0 -77 -48 -119q-42 -36 -103 -36h-112v-224zM321 284q101 0 101 90q0 87 -101 87h-92v-177h92z" />
    <glyph glyph-name="uniF771" unicode="&#xf771;" 
d="M500 16l-42 -45l-58 53q-43 -33 -100 -33q-75 0 -124 56q-61 70 -61 213q0 139 57 210q49 60 128 60q75 0 124 -56q61 -71 61 -214q0 -125 -44 -190zM265 147l41 46l84 -77q25 59 25 144q0 207 -115 207t-115 -207q0 -206 115 -206q27 0 52 14z" />
    <glyph glyph-name="uniF772" unicode="&#xf772;" 
d="M304 283q49 0 78 26q30 26 30 70q0 82 -88 82h-108v-178h88zM149 521h177q70 0 111 -33q45 -37 45 -109q0 -49 -29 -90q-30 -42 -77 -56l128 -211l-58 -35l-133 236h-97v-223h-67v521z" />
    <glyph glyph-name="uniF773" unicode="&#xf773;" 
d="M191 165q23 -111 114 -111q43 0 70 22q28 24 28 66t-33 67q-15 11 -72 34q-82 35 -102 50q-46 35 -46 100q0 64 46 102q43 35 107 35q125 0 159 -131l-64 -19q-20 87 -96 87q-35 0 -59 -17q-26 -19 -26 -52q0 -49 70 -81l111 -49q72 -40 72 -122q0 -73 -46 -115
q-45 -40 -119 -40q-71 0 -117 43q-45 41 -57 112z" />
    <glyph glyph-name="uniF774" unicode="&#xf774;" 
d="M268 461h-144v60h352v-60h-141v-461h-67v461z" />
    <glyph glyph-name="uniF775" unicode="&#xf775;" 
d="M204 521v-355q0 -59 20 -84q21 -28 71 -28q60 0 83 28q19 24 19 84v355h67v-387q0 -58 -39 -97q-45 -46 -125 -46t-124 45q-39 40 -39 102v383h67z" />
    <glyph glyph-name="uniF776" unicode="&#xf776;" 
d="M442 534l64 -24l-200 -523h-12l-200 523l64 24l142 -382z" />
    <glyph glyph-name="uniF777" unicode="&#xf777;" 
d="M162 534l40 -366h2l87 256h18l87 -256h2l41 366l68 -8l-75 -539h-23l-109 321l-109 -321h-23l-75 539z" />
    <glyph glyph-name="uniF778" unicode="&#xf778;" 
d="M161 -13l-60 34l161 255l-147 223l61 35l124 -198l124 198l61 -35l-147 -223l161 -255l-60 -34l-139 230z" />
    <glyph glyph-name="uniF779" unicode="&#xf779;" 
d="M439 534l63 -33l-169 -300v-201h-67v201l-168 300l63 33l139 -268z" />
    <glyph glyph-name="oneeighth" unicode="&#x215b;" 
d="M563 87q0 -44 -36 -71q-33 -25 -79 -25t-78 25q-36 27 -36 71q0 55 63 85q-52 33 -52 76q0 41 32 67q29 25 71 25t71 -25q32 -26 32 -67q0 -44 -52 -76q64 -32 64 -85zM394 86q0 -45 54 -45q55 0 55 45q0 26 -55 58q-54 -31 -54 -58zM491 248q0 42 -43 42t-43 -42
q0 -21 43 -49q43 28 43 49zM118 609l-62 -21l-18 45l140 47v-298h58v-50h-192v50h74v227zM512 651l-377 -664l-53 26l377 667z" />
    <glyph glyph-name="threeeighths" unicode="&#x215c;" 
d="M573 87q0 -44 -36 -71q-33 -25 -79 -25t-78 25q-36 27 -36 71q0 55 63 85q-52 33 -52 76q0 41 32 67q29 25 71 25t71 -25q32 -26 32 -67q0 -44 -52 -76q64 -32 64 -85zM404 86q0 -45 54 -45q55 0 55 45q0 26 -55 58q-54 -31 -54 -58zM501 248q0 42 -43 42t-43 -42
q0 -21 43 -49q43 28 43 49zM515 651l-377 -664l-53 26l377 667zM258 634l-86 -79q38 -4 64 -27q28 -25 28 -62q0 -49 -40 -86q-59 -54 -182 -47v50q162 -2 162 82q0 46 -70 46q-17 0 -53 -6v39l92 82h-136v50h221v-42z" />
    <glyph glyph-name="fiveeighths" unicode="&#x215d;" 
d="M564 87q0 -44 -36 -71q-33 -25 -79 -25t-78 25q-36 27 -36 71q0 55 63 85q-52 33 -52 76q0 41 32 67q29 25 71 25t71 -25q32 -26 32 -67q0 -44 -52 -76q64 -32 64 -85zM395 86q0 -45 54 -45q55 0 55 45q0 26 -55 58q-54 -31 -54 -58zM492 248q0 42 -43 42t-43 -42
q0 -21 43 -49q43 28 43 49zM44 676h209v-50h-149v-73q25 7 43 7q47 0 77 -25q32 -28 32 -74q0 -47 -44 -86q-50 -44 -124 -44h-52v50h34q56 0 90 22q36 23 36 62q0 45 -52 45q-24 0 -58 -16h-42v182zM504 651l-377 -664l-53 26l377 667z" />
    <glyph glyph-name="seveneighths" unicode="&#x215e;" 
d="M551 87q0 -44 -36 -71q-33 -25 -79 -25t-78 25q-36 27 -36 71q0 55 63 85q-52 33 -52 76q0 41 32 67q29 25 71 25t71 -25q32 -26 32 -67q0 -44 -52 -76q64 -32 64 -85zM382 86q0 -45 54 -45q55 0 55 45q0 26 -55 58q-54 -31 -54 -58zM479 248q0 42 -43 42t-43 -42
q0 -21 43 -49q43 28 43 49zM211 626h-143v50h228l-175 -346l-51 20zM480 651l-377 -664l-53 26l377 667z" />
    <glyph glyph-name="uniF77A" unicode="&#xf77a;" 
d="M377 461h-244v60h355l-271 -461h279v-60h-392z" />
    <glyph glyph-name="Hbar.aalt" 
d="M197 382v-77h206v77h-206zM197 245v-245h-67v382h-70v60h70v79h67v-79h206v79h67v-79h70v-60h-70v-382h-67v245h-206z" />
    <glyph glyph-name="uniF7F8" unicode="&#xf7f8;" 
d="M365 442q-25 25 -65 25q-115 0 -115 -207q0 -67 15 -119zM233 80q29 -26 67 -26q115 0 115 206q0 71 -16 123zM417 538l50 -28l-29 -55q47 -71 47 -195q0 -138 -57 -208q-49 -61 -128 -61q-57 0 -98 32l-21 -39l-51 27l31 57q-46 67 -46 192q0 139 57 210q49 60 128 60
q56 0 96 -30z" />
    <glyph glyph-name="Tbar.aalt" 
d="M335 461v-147h100v-60h-100v-254h-67v254h-100v60h100v147h-144v60h352v-60h-141z" />
    <glyph glyph-name="Eng.aalt" 
d="M193 483q47 47 115 47q110 0 149 -102q24 -63 24 -196q0 -137 -21 -194q-39 -107 -162 -106v60q65 0 87 37q29 49 29 204q0 135 -32 190q-27 47 -84 47q-40 0 -71 -25q-34 -26 -34 -65v-380h-67v521h67v-38z" />
    <glyph glyph-name="uniF7F0" unicode="&#xf7f0;" 
d="M173 461h-54v60h174q114 0 163 -55q52 -58 52 -199q0 -138 -37 -195q-48 -72 -178 -72h-174v60h54v170h-54v60h54v171zM319 290v-60h-79v-170h71q67 0 97 44q30 46 30 156q0 114 -33 161q-30 40 -96 40h-69v-171h79z" />
    <glyph glyph-name="uniF7FE" unicode="&#xf7fe;" 
d="M229 0h-67v521h67v-112h95q85 0 129 -42q39 -38 39 -100q0 -77 -48 -119q-42 -36 -103 -36h-112v-112zM321 172q101 0 101 90q0 87 -101 87h-92v-177h92z" />
    <glyph glyph-name="uniF7E6" unicode="&#xf7e6;" 
d="M291 461h-42l-76 -259h118v259zM291 142h-137l-48 -155l-66 24l164 510h332v-60h-178v-156h145v-60h-145v-185h178v-60h-245v142z" />
    <glyph glyph-name="uniF6FA" unicode="&#xf6fa;" 
d="M541 521v-60h-178v-156h146v-60h-146v-185h178v-60h-238q-9 -4 -25 -7q-18 -2 -27 -2q-103 0 -152 88q-39 70 -39 181q0 143 61 214q49 56 124 56q35 0 58 -9h238zM296 453q-23 14 -51 14q-115 0 -115 -207q0 -206 115 -206q28 0 51 14v385z" />
    <glyph glyph-name="uniF7E1" unicode="&#xf7e1;" 
d="M208 142l-49 -155l-66 24l164 510h86l164 -510l-66 -24l-48 155h-185zM300 443l-74 -241h148zM413 632l-187 -82l-26 44l177 101z" />
    <glyph glyph-name="uniF7E2" unicode="&#xf7e2;" 
d="M208 142l-49 -155l-66 24l164 510h86l164 -510l-66 -24l-48 155h-185zM300 443l-74 -241h148zM173 551l-24 36l151 102l151 -102l-23 -36l-128 62z" />
    <glyph glyph-name="uniF7E4" unicode="&#xf7e4;" 
d="M208 142l-49 -155l-66 24l164 510h86l164 -510l-66 -24l-48 155h-185zM300 443l-74 -241h148zM244 659q12 -18 12 -42t-12 -42q-13 -21 -36 -21t-36 21q-12 18 -12 42t12 42q13 21 36 21t36 -21zM428 659q12 -18 12 -42t-12 -42q-13 -21 -36 -21t-36 21q-12 18 -12 42
t12 42q13 21 36 21t36 -21z" />
    <glyph glyph-name="uniF7E0" unicode="&#xf7e0;" 
d="M208 142l-49 -155l-66 24l164 510h86l164 -510l-66 -24l-48 155h-185zM300 443l-74 -241h148zM413 594l-26 -44l-187 82l36 63z" />
    <glyph glyph-name="uniF7E5" unicode="&#xf7e5;" 
d="M208 142l-49 -155l-66 24l164 510h86l164 -510l-66 -24l-48 155h-185zM300 443l-74 -241h148zM362 676q25 -26 25 -61q0 -36 -25 -61q-26 -26 -62 -26t-61 26q-26 25 -26 61q0 35 26 61q25 25 61 25t62 -25zM267 647q-14 -13 -14 -32t14 -33t33 -14q20 0 33 14
q14 14 14 33t-14 32q-14 14 -33 14t-33 -14z" />
    <glyph glyph-name="uniF7E3" unicode="&#xf7e3;" 
d="M208 142l-49 -155l-66 24l164 510h86l164 -510l-66 -24l-48 155h-185zM300 443l-74 -241h148zM454 664q-30 -105 -90 -105q-32 0 -72 31q-32 26 -49 26q-23 0 -48 -62l-49 19q38 103 97 103q26 0 66 -30q36 -28 52 -28q23 0 42 62z" />
    <glyph glyph-name="uniF7E7" unicode="&#xf7e7;" 
d="M487 100q-60 -96 -148 -108l-11 -34q80 -4 80 -71q0 -34 -30 -56q-28 -21 -63 -21q-38 0 -102 29l20 51q42 -20 74 -20q31 0 31 20q0 21 -35 28q7 -2 -50 4l26 72q-86 14 -129 96q-36 69 -36 170q0 141 66 213q52 57 128 57q105 0 165 -111l-61 -31q-41 79 -103 79
q-69 0 -101 -73q-24 -53 -24 -133q0 -207 125 -207q68 0 123 84z" />
    <glyph glyph-name="uniF7E9" unicode="&#xf7e9;" 
d="M157 521h325v-60h-258v-156h213v-60h-213v-185h258v-60h-325v521zM413 632l-187 -82l-26 44l177 101z" />
    <glyph glyph-name="uniF7EA" unicode="&#xf7ea;" 
d="M157 521h325v-60h-258v-156h213v-60h-213v-185h258v-60h-325v521zM173 551l-24 36l151 102l151 -102l-23 -36l-128 62z" />
    <glyph glyph-name="uniF7EB" unicode="&#xf7eb;" 
d="M157 521h325v-60h-258v-156h213v-60h-213v-185h258v-60h-325v521zM244 659q12 -18 12 -42t-12 -42q-13 -21 -36 -21t-36 21q-12 18 -12 42t12 42q13 21 36 21t36 -21zM428 659q12 -18 12 -42t-12 -42q-13 -21 -36 -21t-36 21q-12 18 -12 42t12 42q13 21 36 21t36 -21z
" />
    <glyph glyph-name="uniF7E8" unicode="&#xf7e8;" 
d="M157 521h325v-60h-258v-156h213v-60h-213v-185h258v-60h-325v521zM413 594l-26 -44l-187 82l36 63z" />
    <glyph glyph-name="uniF7ED" unicode="&#xf7ed;" 
d="M193 60h73v401h-73v60h214v-60h-74v-401h74v-60h-214v60zM413 632l-187 -82l-26 44l177 101z" />
    <glyph glyph-name="uniF7EE" unicode="&#xf7ee;" 
d="M193 60h73v401h-73v60h214v-60h-74v-401h74v-60h-214v60zM173 551l-24 36l151 102l151 -102l-23 -36l-128 62z" />
    <glyph glyph-name="uniF7EF" unicode="&#xf7ef;" 
d="M193 60h73v401h-73v60h214v-60h-74v-401h74v-60h-214v60zM244 659q12 -18 12 -42t-12 -42q-13 -21 -36 -21t-36 21q-12 18 -12 42t12 42q13 21 36 21t36 -21zM428 659q12 -18 12 -42t-12 -42q-13 -21 -36 -21t-36 21q-12 18 -12 42t12 42q13 21 36 21t36 -21z" />
    <glyph glyph-name="uniF7EC" unicode="&#xf7ec;" 
d="M193 60h73v401h-73v60h214v-60h-74v-401h74v-60h-214v60zM413 594l-26 -44l-187 82l36 63z" />
    <glyph glyph-name="Ldot.aalt" 
d="M170 521h67v-461h273v-60h-340v521zM460 351h82v-123h-82v123z" />
    <glyph glyph-name="uniF6F9" unicode="&#xf6f9;" 
d="M237 338l87 33v-67l-87 -33v-211h273v-60h-340v246l-87 -33v67l87 33v208h67v-183z" />
    <glyph glyph-name="uniF7F1" unicode="&#xf7f1;" 
d="M126 521h83l202 -439l2 2l-6 135v302h67v-521h-83l-202 439l-2 -2l6 -136v-301h-67v521zM454 664q-30 -105 -90 -105q-32 0 -72 31q-32 26 -49 26q-23 0 -48 -62l-49 19q38 103 97 103q26 0 66 -30q36 -28 52 -28q23 0 42 62z" />
    <glyph glyph-name="uniF7F3" unicode="&#xf7f3;" 
d="M424 474q61 -71 61 -214q0 -86 -24 -150q-45 -119 -161 -119q-75 0 -124 56q-61 70 -61 213t60 213q49 57 125 57q75 0 124 -56zM185 260q0 -206 115 -206t115 206q0 207 -115 207t-115 -207zM413 632l-187 -82l-26 44l177 101z" />
    <glyph glyph-name="uniF7F4" unicode="&#xf7f4;" 
d="M424 474q61 -71 61 -214q0 -86 -24 -150q-45 -119 -161 -119q-75 0 -124 56q-61 70 -61 213t60 213q49 57 125 57q75 0 124 -56zM185 260q0 -206 115 -206t115 206q0 207 -115 207t-115 -207zM173 551l-24 36l151 102l151 -102l-23 -36l-128 62z" />
    <glyph glyph-name="uniF7F6" unicode="&#xf7f6;" 
d="M424 474q61 -71 61 -214q0 -86 -24 -150q-45 -119 -161 -119q-75 0 -124 56q-61 70 -61 213t60 213q49 57 125 57q75 0 124 -56zM185 260q0 -206 115 -206t115 206q0 207 -115 207t-115 -207zM244 659q12 -18 12 -42t-12 -42q-13 -21 -36 -21t-36 21q-12 18 -12 42t12 42
q13 21 36 21t36 -21zM428 659q12 -18 12 -42t-12 -42q-13 -21 -36 -21t-36 21q-12 18 -12 42t12 42q13 21 36 21t36 -21z" />
    <glyph glyph-name="uniF7F2" unicode="&#xf7f2;" 
d="M424 474q61 -71 61 -214q0 -86 -24 -150q-45 -119 -161 -119q-75 0 -124 56q-61 70 -61 213t60 213q49 57 125 57q75 0 124 -56zM185 260q0 -206 115 -206t115 206q0 207 -115 207t-115 -207zM413 594l-26 -44l-187 82l36 63z" />
    <glyph glyph-name="uniF7F5" unicode="&#xf7f5;" 
d="M424 474q61 -71 61 -214q0 -86 -24 -150q-45 -119 -161 -119q-75 0 -124 56q-61 70 -61 213t60 213q49 57 125 57q75 0 124 -56zM185 260q0 -206 115 -206t115 206q0 207 -115 207t-115 -207zM454 664q-30 -105 -90 -105q-32 0 -72 31q-32 26 -49 26q-23 0 -48 -62
l-49 19q38 103 97 103q26 0 66 -30q36 -28 52 -28q23 0 42 62z" />
    <glyph glyph-name="Eng" unicode="&#x14a;" 
d="M193 0h-67v667h67v-40q40 49 115 49q111 0 149 -74q24 -47 24 -155v-324q0 -95 -23 -135q-40 -69 -160 -75v63q72 3 94 30q22 28 22 117v324q0 103 -24 136q-23 30 -92 30q-90 0 -105 -113v-500z" />
    <glyph glyph-name="Hbar" unicode="&#x126;" 
d="M403 497h-206v-110h206v110zM403 557v110h67v-110h65v-60h-65v-497h-67v327h-206v-327h-67v497h-65v60h65v110h67v-110h206z" />
    <glyph glyph-name="IJ" unicode="&#x132;" 
d="M26 60h74v547h-74v60h215v-60h-74v-547h74v-60h-215v60zM316 242q-6 -105 17 -149q19 -39 64 -39q52 0 71 55q10 32 10 98v460h67v-473q0 -203 -146 -203q-78 0 -109 43q-41 55 -41 208h67z" />
    <glyph glyph-name="Ldot" unicode="&#x13f;" 
d="M169 667h67v-607h274v-60h-341v667zM454 432h82v-128h-82v128z" />
    <glyph glyph-name="Tbar" unicode="&#x166;" 
d="M335 607v-224h118v-60h-118v-323h-67v323h-118v60h118v224h-144v60h352v-60h-141z" />
    <glyph glyph-name="dcroat" unicode="&#x111;" 
d="M119 461v60h174q114 0 163 -55q52 -58 52 -199q0 -138 -37 -195q-48 -72 -178 -72h-174v60h54v171h-54v60h54v170h-54zM240 461v-170h79v-60h-79v-171h71q67 0 97 44q30 46 30 156q0 114 -33 161q-30 40 -96 40h-69z" />
    <glyph glyph-name="eng" unicode="&#x14b;" 
d="M193 483q47 47 115 47q110 0 149 -102q24 -63 24 -196q0 -137 -21 -194q-39 -107 -162 -106v60q65 0 87 37q29 49 29 204q0 135 -32 190q-27 47 -84 47q-40 0 -71 -25q-34 -26 -34 -65v-380h-67v521h67v-38z" />
    <glyph glyph-name="hbar" unicode="&#x127;" 
d="M197 382v-77h206v77h-206zM197 245v-245h-67v382h-70v60h70v79h67v-79h206v79h67v-79h70v-60h-70v-382h-67v245h-206z" />
    <glyph glyph-name="ij" unicode="&#x133;" 
d="M23 60h63v401h-63v60h194v-60h-64v-401h64v-60h-194v60zM306 242v-60q0 -128 81 -128t81 137v330h67v-335q0 -195 -146 -195q-150 0 -150 178v73h67z" />
    <glyph glyph-name="ldot" unicode="&#x140;" 
d="M170 521h67v-461h273v-60h-340v521zM460 351h82v-123h-82v123z" />
    <glyph glyph-name="tbar" unicode="&#x167;" 
d="M335 461v-147h100v-60h-100v-254h-67v254h-100v60h100v147h-144v60h352v-60h-141z" />
    <glyph glyph-name="kgreenlandic" unicode="&#x138;" 
d="M229 299h25l127 167q39 48 69 56q28 8 78 8v-55q-39 2 -62 -9q-16 -8 -42 -42l-113 -149l203 -245l-51 -43l-211 257h-23v-244h-67v521h67v-222z" />
    <glyph glyph-name="napostrophe" unicode="&#x149;" 
d="M181 667v-45q0 -104 -111 -162l-23 55q42 27 42 91v61h92zM212 521h83l202 -439l2 2l-6 135v302h67v-521h-83l-202 439l-2 -2l6 -136v-301h-67v521z" />
    <glyph glyph-name="uni2206" unicode="&#x2206;" 
d="M16 46l247 633h75l246 -632v-47h-567zM513 51l-147 383q-33 86 -65 181h-4l-60 -163l-154 -401h430z" />
    <glyph glyph-name="uni2126" unicode="&#x2126;" 
d="M169 53q-151 111 -151 297q0 153 92 242q80 78 192 78q126 0 203 -89t77 -228q0 -195 -153 -300v-2h168v-51h-255v38q74 39 120 111q55 86 54 195q0 121 -55 197q-58 79 -158 79q-97 0 -158 -73q-62 -77 -62 -206q0 -104 55 -190q48 -76 120 -113v-38h-255v51h166v2z" />
    <glyph glyph-name="pi" unicode="&#x3c0;" 
d="M469 437v-291q0 -96 16 -146h-64q-17 26 -17 137v300h-168q-16 -298 -81 -437h-64q68 166 80 437q-79 0 -116 -14l-11 41q47 26 138 26h374l-7 -53h-80z" />
    <glyph glyph-name="underscoredbl" unicode="&#x2017;" 
d="M0 -108v36h600v-36h-600zM0 -216v36h600v-36h-600z" />
    <glyph glyph-name="exclamdbl" unicode="&#x203c;" 
d="M140 207l-18 460h102l-20 -460h-64zM380 148h92v-148h-92v148zM394 207l-18 460h102l-20 -460h-64zM127 148h92v-148h-92v148z" />
    <glyph glyph-name="franc" unicode="&#x20a3;" 
d="M402 283q80 5 80 96q0 82 -65 82h-85v-178h70zM272 521h147q123 0 123 -142q0 -49 -23 -90q-24 -42 -61 -56l101 -211l-51 -35l-105 236h-71v-223h-60v521zM16 667h268v-60h-201v-220h159v-60h-159v-327h-67v667z" />
    <glyph glyph-name="Euro" unicode="&#x20ac;" 
d="M553 552q-65 61 -171 61q-92 0 -148 -56q-50 -50 -61 -133h332l-21 -53h-319q-2 -18 -2 -36t2 -38h290l-21 -53h-261q31 -192 210 -192q102 0 170 61v-71q-58 -50 -178 -50q-232 0 -271 252h-76l21 53h49q-1 9 -1 38q0 27 1 36h-70l21 53h54q40 251 272 251
q115 0 178 -53v-70z" />
    <glyph glyph-name="estimated" unicode="&#x212e;" 
d="M113 258q-4 0 -4 -3v-149q0 -9 6 -17q78 -80 186 -80q116 0 195 90h44q-89 -105 -240 -105q-125 0 -214 79q-89 80 -89 192q0 113 89 193t214 80q126 0 215 -80t89 -193v-7h-491zM492 427q0 11 -7 17q-80 78 -184 78q-107 0 -185 -80q-7 -7 -7 -18v-147q0 -5 4 -5h376
q3 0 3 5v150z" />
    <glyph glyph-name="partialdiff" unicode="&#x2202;" 
d="M100 686q71 54 174 54q109 0 183 -91q80 -99 80 -268q0 -161 -67 -268q-75 -119 -205 -119q-97 0 -153 73q-49 62 -49 147q0 105 67 173q64 64 156 64q69 0 126 -42q42 -30 60 -65h1q2 14 2 48q0 134 -62 218q-59 80 -144 80q-79 0 -144 -47zM271 45q76 0 131 73
q49 67 61 165q-15 41 -56 76q-51 42 -111 42q-69 0 -119 -54t-50 -131q0 -73 39 -121q41 -50 104 -50h1z" />
    <glyph glyph-name="product" unicode="&#x220f;" 
d="M512 609v-695h-63v695h-298v-695h-63v695h-82v55h588v-55h-82z" />
    <glyph glyph-name="summation" unicode="&#x2211;" 
d="M384 351l-191 -291h279v-60h-344v67l184 286l-184 248v66h341v-60h-270z" />
    <glyph glyph-name="uni2219" unicode="&#x2219;" 
d="M254 387h92v-108h-92v108z" />
    <glyph glyph-name="radical" unicode="&#x221a;" 
d="M345 -138h-60l-172 443l-79 -30l-15 39l134 52l144 -377l17 -60h1q3 17 14 61l202 796h50z" />
    <glyph glyph-name="infinity" unicode="&#x221e;" 
d="M301 242q-47 -63 -67 -81q-41 -36 -94 -36q-59 0 -101 44q-41 43 -41 106q0 73 47 115q42 37 101 37q67 0 127 -75q6 -7 16 -21l16 -21q80 117 161 117q58 0 97 -42t39 -106v-1q0 -68 -43 -111q-40 -42 -100 -42q-76 0 -158 117zM461 385q-51 0 -105 -69q-11 -16 -28 -38
q77 -110 135 -110q44 0 69 34q23 30 23 73q0 51 -27 81q-26 29 -66 29h-1zM74 358q-29 -30 -29 -84q0 -45 27 -75q28 -31 74 -31h1q46 0 128 106q-76 111 -137 111q-38 0 -64 -27z" />
    <glyph glyph-name="integral" unicode="&#x222b;" 
d="M456 751q-15 11 -40 11q-35 0 -53 -21q-38 -41 -38 -171q0 -73 8 -238q7 -166 7 -241q0 -128 -46 -190q-32 -46 -95 -46q-40 0 -67 18l13 44q29 -13 50 -13q30 0 49 21q39 46 39 167q0 77 -7 244q-8 167 -8 240q0 147 54 198q36 35 90 35q31 0 56 -15z" />
    <glyph glyph-name="approxequal" unicode="&#x2248;" 
d="M547 469q-53 -93 -133 -93q-41 0 -126 44q-66 35 -101 35q-53 0 -108 -76l-28 24q53 93 143 93q33 0 119 -43q70 -35 103 -35q58 0 104 75zM547 317q-53 -92 -133 -92q-41 0 -126 44q-64 35 -101 35q-54 0 -108 -77l-28 25q53 93 143 93q40 0 119 -42q70 -36 104 -36
q56 0 103 75z" />
    <glyph glyph-name="notequal" unicode="&#x2260;" 
d="M366 451h199v-44h-223l-52 -93h275v-44h-298l-66 -125l-34 17l57 108h-190v44h215l51 93h-266v44h289l35 63q24 43 32 59q17 -8 34 -17z" />
    <glyph glyph-name="lessequal" unicode="&#x2264;" 
d="M60 314v44l482 228v-50l-433 -198v-2l433 -200v-50zM54 1v43h491v-43h-491z" />
    <glyph glyph-name="greaterequal" unicode="&#x2265;" 
d="M542 358v-44l-481 -228v50l432 199v2l-432 199v50zM55 1v43h489v-43h-489z" />
    <glyph glyph-name="lozenge" unicode="&#x25ca;" 
d="M325 -43h-51l-214 377l214 378h51l215 -378zM320 616q-12 21 -20 45h-2q-6 -17 -20 -45l-160 -280l162 -285q14 -25 18 -44h4q7 25 18 44l161 282z" />
    <glyph glyph-name="uni02C9" unicode="&#x2c9;" 
d="M157 586v60h287v-60h-287z" />
    <glyph glyph-name="uniF6FD" unicode="&#xf6fd;" 
d="M191 165q23 -111 114 -111q43 0 70 22q28 24 28 66t-33 67q-15 11 -72 34q-82 35 -102 50q-46 35 -46 100q0 64 46 102q43 35 107 35q125 0 159 -131l-64 -19q-20 87 -96 87q-35 0 -59 -17q-26 -19 -26 -52q0 -49 70 -81l111 -49q72 -40 72 -122q0 -73 -46 -115
q-45 -40 -119 -40q-71 0 -117 43q-45 41 -57 112zM300 625l128 62l23 -36l-151 -102l-151 102l24 36z" />
    <glyph glyph-name="uniF7FA" unicode="&#xf7fa;" 
d="M204 521v-355q0 -59 20 -84q21 -28 71 -28q60 0 83 28q19 24 19 84v355h67v-387q0 -58 -39 -97q-45 -46 -125 -46t-124 45q-39 40 -39 102v383h67zM413 632l-187 -82l-26 44l177 101z" />
    <glyph glyph-name="uniF7FB" unicode="&#xf7fb;" 
d="M204 521v-355q0 -59 20 -84q21 -28 71 -28q60 0 83 28q19 24 19 84v355h67v-387q0 -58 -39 -97q-45 -46 -125 -46t-124 45q-39 40 -39 102v383h67zM173 551l-24 36l151 102l151 -102l-23 -36l-128 62z" />
    <glyph glyph-name="uniF7FC" unicode="&#xf7fc;" 
d="M204 521v-355q0 -59 20 -84q21 -28 71 -28q60 0 83 28q19 24 19 84v355h67v-387q0 -58 -39 -97q-45 -46 -125 -46t-124 45q-39 40 -39 102v383h67zM244 659q12 -18 12 -42t-12 -42q-13 -21 -36 -21t-36 21q-12 18 -12 42t12 42q13 21 36 21t36 -21zM428 659
q12 -18 12 -42t-12 -42q-13 -21 -36 -21t-36 21q-12 18 -12 42t12 42q13 21 36 21t36 -21z" />
    <glyph glyph-name="uniF7F9" unicode="&#xf7f9;" 
d="M204 521v-355q0 -59 20 -84q21 -28 71 -28q60 0 83 28q19 24 19 84v355h67v-387q0 -58 -39 -97q-45 -46 -125 -46t-124 45q-39 40 -39 102v383h67zM413 594l-26 -44l-187 82l36 63z" />
    <glyph glyph-name="uniF7FD" unicode="&#xf7fd;" 
d="M439 534l63 -33l-169 -300v-201h-67v201l-168 300l63 33l139 -268zM413 632l-187 -82l-26 44l177 101z" />
    <glyph glyph-name="uniF7FF" unicode="&#xf7ff;" 
d="M439 534l63 -33l-169 -300v-201h-67v201l-168 300l63 33l139 -268zM244 659q12 -18 12 -42t-12 -42q-13 -21 -36 -21t-36 21q-12 18 -12 42t12 42q13 21 36 21t36 -21zM428 659q12 -18 12 -42t-12 -42q-13 -21 -36 -21t-36 21q-12 18 -12 42t12 42q13 21 36 21t36 -21z
" />
    <glyph glyph-name="uniF6FF" unicode="&#xf6ff;" 
d="M377 461h-244v60h355l-271 -461h279v-60h-392zM300 625l128 62l23 -36l-151 -102l-151 102l24 36z" />
    <glyph glyph-name="SF110000" unicode="&#x2502;" 
d="M264 792h72v-1080h-72v1080z" />
    <glyph glyph-name="SF500000" unicode="&#x2558;" 
d="M264 792h72v-432h264v-72h-264v-72h264v-72h-336v648z" />
    <glyph glyph-name="IJ.aalt" 
d="M23 60h63v401h-63v60h194v-60h-64v-401h64v-60h-194v60zM306 242v-60q0 -128 81 -128t81 137v330h67v-335q0 -195 -146 -195q-150 0 -150 178v73h67z" />
    <glyph glyph-name="uni2304" unicode="&#x2304;" 
d="M160 680l140 -275l137 275h50l-161 -323h-52l-164 323h50z" />
    <glyph glyph-name="SF510000" unicode="&#x2552;" 
d="M264 360h336v-72h-264v-72h264v-72h-264v-432h-72v648z" />
    <glyph glyph-name="SF490000" unicode="&#x2559;" 
d="M192 792h72v-504h72v504h72v-504h192v-72h-408v576z" />
    <glyph glyph-name="SF200000" unicode="&#x2562;" 
d="M0 288h192v504h72v-1080h-72v504h-192v72zM336 792h72v-1080h-72v1080z" />
    <glyph glyph-name="SF520000" unicode="&#x2553;" 
d="M600 216h-192v-504h-72v504h-72v-504h-72v576h408v-72z" />
    <glyph glyph-name="SF220000" unicode="&#x2555;" 
d="M336 -288h-72v432h-264v72h264v72h-264v72h336v-648z" />
    <glyph glyph-name="arrowboth" unicode="&#x2194;" 
d="M136 338q49 -75 49 -123q0 -16 -14 -16q-8 0 -21 20q-56 83 -125 123q-21 11 -21 18q0 8 21 18q69 40 125 123q13 20 21 20q14 0 14 -16q0 -48 -49 -123h328q-49 75 -49 123q0 16 14 16q8 0 21 -20q56 -83 125 -123q21 -10 21 -18q0 -7 -21 -18q-69 -40 -125 -123
q-13 -20 -21 -20q-14 0 -14 16q0 48 49 123h-328z" />
    <glyph glyph-name="SF080000" unicode="&#x251c;" 
d="M264 792h72v-504h264v-72h-264v-504h-72v1080z" />
    <glyph glyph-name="arrowupdn" unicode="&#x2195;" 
d="M278 524q-75 -49 -123 -49q-16 0 -16 14q0 8 20 21q83 56 123 125q11 21 18 21q8 0 18 -21q40 -69 123 -125q20 -13 20 -21q0 -14 -16 -14q-48 0 -123 49v-328q75 49 123 49q16 0 16 -14q0 -8 -20 -21q-83 -56 -123 -125q-10 -21 -18 -21q-7 0 -18 21q-40 69 -123 125
q-20 13 -20 21q0 14 16 14q48 0 123 -49v328z" />
    <glyph glyph-name="arrowupdnbse" unicode="&#x21a8;" 
d="M278 589q-75 -49 -123 -49q-16 0 -16 14q0 8 20 21q83 56 123 125q11 21 18 21q8 0 18 -21q40 -69 123 -125q20 -13 20 -21q0 -14 -16 -14q-48 0 -123 49v-328q75 49 123 49q16 0 16 -14q0 -8 -20 -21q-83 -56 -123 -125q-10 -21 -18 -21q-7 0 -18 21q-40 69 -123 125
q-20 13 -20 21q0 14 16 14q48 0 123 -49v328zM461 0h-322v44h322v-44z" />
    <glyph glyph-name="SF280000" unicode="&#x255b;" 
d="M336 144h-336v72h264v72h-264v72h264v432h72v-648z" />
    <glyph glyph-name="SF470000" unicode="&#x2564;" 
d="M0 216h600v-72h-264v-432h-72v432h-264v72zM0 360h600v-72h-600v72z" />
    <glyph glyph-name="mu" unicode="&#x3bc;" 
d="M402 44q-38 -53 -100 -53q-65 0 -103 49v-251h-67v732h67v-344q0 -66 39 -99q27 -24 59 -24q52 0 81 49q24 40 24 95v323h67v-521h-67v44z" />
    <glyph glyph-name="uni266C" unicode="&#x266c;" 
d="M545 482l-309 -93v-241q0 -87 -45 -133q-41 -42 -111 -42q-69 0 -69 63q0 48 39 83q38 35 86 35q31 0 56 -11v469l397 112v-517q0 -87 -45 -133q-41 -42 -111 -42q-69 0 -69 63q0 48 39 83q38 35 86 35q31 0 56 -11v280zM545 562v72l-309 -94v-72z" />
    <glyph glyph-name="uni2215" unicode="&#x2215;" 
d="M515 651l-377 -664l-53 26l377 667z" />
    <glyph glyph-name="SF420000" unicode="&#x2560;" 
d="M192 792h72v-1080h-72v1080zM336 216h264v-72h-192v-432h-72v504zM336 792h72v-432h192v-72h-264v504z" />
    <glyph glyph-name="block" unicode="&#x2588;" 
d="M0 792h600v-1080h-600v1080z" />
    <glyph glyph-name="SF260000" unicode="&#x255d;" 
d="M0 216h336v576h72v-648h-408v72zM0 360h192v432h72v-504h-264v72z" />
    <glyph glyph-name="uni2319" unicode="&#x2319;" 
d="M74 276v-232h496v-44h-540v276h44z" />
    <glyph glyph-name="circle" unicode="&#x25cb;" 
d="M138 414q68 67 162 67q95 0 162 -67t67 -162q0 -94 -67 -162q-67 -67 -162 -67q-94 0 -162 67q-67 68 -67 162q0 95 67 162zM168 120q55 -55 132 -55t132 55t55 132t-55 132t-132 55t-132 -55t-55 -132t55 -132z" />
    <glyph glyph-name="club" unicode="&#x2663;" 
d="M97 0l6 21q95 22 137 71q55 64 55 204h-2q-18 -54 -57 -93q-45 -45 -96 -45q-62 0 -101 51q-36 47 -36 111q0 55 29 104q32 56 80 56q38 0 86 -30q-32 62 -32 106q0 59 35 105q38 51 99 51t99 -51q35 -46 35 -105q0 -44 -32 -106q48 30 86 30q48 0 80 -56q29 -49 29 -104
q0 -64 -35 -111q-40 -51 -102 -51q-51 0 -96 45q-39 39 -57 93h-2q0 -140 55 -204q42 -49 137 -71l6 -21h-406z" />
    <glyph glyph-name="SF010000" unicode="&#x250c;" 
d="M264 288h336v-72h-264v-504h-72v576z" />
    <glyph glyph-name="uni2662" unicode="&#x2662;" 
d="M597 350q-189 -196 -297 -362q-108 166 -297 362q189 196 297 362q108 -166 297 -362zM577 350q-183 192 -277 339q-94 -147 -277 -339q183 -192 277 -339q94 147 277 339z" />
    <glyph glyph-name="SF380000" unicode="&#x255a;" 
d="M192 792h72v-576h336v-72h-408v648zM336 792h72v-432h192v-72h-264v504z" />
    <glyph glyph-name="diamond" unicode="&#x2666;" 
d="M597 350q-189 -196 -297 -362q-108 166 -297 362q189 196 297 362q108 -166 297 -362z" />
    <glyph glyph-name="SF050000" unicode="&#x253c;" 
d="M0 288h264v504h72v-504h264v-72h-264v-504h-72v504h-264v72z" />
    <glyph glyph-name="Omega" unicode="&#x3a9;" 
d="M169 53q-151 111 -151 297q0 153 92 242q80 78 192 78q126 0 203 -89t77 -228q0 -195 -153 -300v-2h168v-51h-255v38q74 39 120 111q55 86 54 195q0 121 -55 197q-58 79 -158 79q-97 0 -158 -73q-62 -77 -62 -206q0 -104 55 -190q48 -76 120 -113v-38h-255v51h166v2z" />
    <glyph glyph-name="SF390000" unicode="&#x2554;" 
d="M192 360h408v-72h-336v-576h-72v648zM336 216h264v-72h-192v-432h-72v504z" />
    <glyph glyph-name="dkshade" unicode="&#x2593;" 
d="M0 -92v97h138v-97h-138zM62 -190v97h138v-97h-138zM62 6v97h138v-97h-138zM0 -288v97h138v-97h-138zM200 -92v97h138v-97h-138zM262 -190v97h138v-97h-138zM262 6v97h138v-97h-138zM200 -288v97h138v-97h-138zM400 -92v97h138v-97h-138zM462 -190v97h138v-97h-138zM462 6
v97h138v-97h-138zM400 -288v97h138v-97h-138zM62 597v97h138v-97h-138zM0 695v97h138v-97h-138zM0 499v97h138v-97h-138zM262 597v97h138v-97h-138zM200 695v97h138v-97h-138zM200 499v97h138v-97h-138zM462 597v97h138v-97h-138zM400 695v97h138v-97h-138zM400 499v97h138
v-97h-138zM0 105v97h138v-97h-138zM62 203v97h138v-97h-138zM200 105v97h138v-97h-138zM262 203v97h138v-97h-138zM400 105v97h138v-97h-138zM462 203v97h138v-97h-138zM0 302v97h138v-97h-138zM62 400v97h138v-97h-138zM200 302v97h138v-97h-138zM262 400v97h138v-97h-138z
M400 302v97h138v-97h-138zM462 400v97h138v-97h-138z" />
    <glyph glyph-name="dnblock" unicode="&#x2584;" 
d="M0 252h600v-540h-600v540z" />
    <glyph glyph-name="dotmath" unicode="&#x22c5;" 
d="M286 396q36 0 36 -36t-36 -36t-36 36t36 36z" />
    <glyph glyph-name="equivalence" unicode="&#x2261;" 
d="M566 472h-532v44h532v-44zM566 338h-532v44h532v-44zM566 204h-532v44h532v-44z" />
    <glyph glyph-name="SF240000" unicode="&#x2551;" 
d="M192 792h72v-1080h-72v1080zM336 792h72v-1080h-72v1080z" />
    <glyph glyph-name="female" unicode="&#x2640;" 
d="M282 0v171h-126v36h126v109q-65 11 -105 58q-39 45 -39 106q0 67 48 113q47 47 114 47q68 0 115 -47q47 -46 47 -113q0 -61 -39 -106q-39 -47 -105 -58v-109h126v-36h-126v-171h-36zM208 386q37 -38 91 -38q55 0 93 38q38 37 38 92t-38 92q-38 38 -93 38q-54 0 -91 -38
q-38 -37 -38 -92t38 -92z" />
    <glyph glyph-name="SF480000" unicode="&#x2565;" 
d="M0 288h600v-72h-192v-504h-72v504h-72v-504h-72v504h-192v72z" />
    <glyph glyph-name="filledrect" unicode="&#x25ac;" 
d="M100 460h400v-200h-400v200z" />
    <glyph glyph-name="uni203E" unicode="&#x203e;" 
d="M150 728v36h300v-36h-300z" />
    <glyph glyph-name="SF100000" unicode="&#x2500;" 
d="M0 288h600v-72h-600v72z" />
    <glyph glyph-name="heart" unicode="&#x2665;" 
d="M299 -12q-30 123 -180 322q-116 158 -116 253q0 63 40 106q41 43 104 43q56 0 100 -45q40 -42 52 -100h2q12 58 52 100q44 45 100 45q63 0 104 -43q40 -43 40 -106q0 -95 -116 -253q-150 -199 -180 -322h-2z" />
    <glyph glyph-name="SF190000" unicode="&#x2561;" 
d="M0 216h264v72h-264v72h264v432h72v-1080h-72v432h-264v72z" />
    <glyph glyph-name="SF400000" unicode="&#x2569;" 
d="M0 216h600v-72h-600v72zM0 360h192v432h72v-504h-264v72zM336 792h72v-432h192v-72h-264v504z" />
    <glyph glyph-name="uni00AD" unicode="&#xad;" 
d="M189 292h222v-63h-222v63z" />
    <glyph glyph-name="house" unicode="&#x2302;" 
d="M10 0v406l290 169l290 -169v-406h-580zM560 30v361l-260 152l-260 -152v-361h520z" />
    <glyph glyph-name="filledbox" unicode="&#x25a0;" 
d="M100 500h400v-400h-400v400z" />
    <glyph glyph-name="integralbt" unicode="&#x2321;" 
d="M321 274q0 -210 -19 -305q-40 -203 -166 -203q-56 0 -97 44q-39 42 -39 95q0 58 41 58q24 0 36 -25q6 -13 14 -53q14 -79 56 -79q52 0 82 67q48 110 48 251v414h44v-264z" />
    <glyph glyph-name="integraltp" unicode="&#x2320;" 
d="M278 538q0 210 19 305q40 203 166 203q56 0 97 -44q39 -42 39 -95q0 -58 -41 -58q-24 0 -36 25q-6 13 -14 54q-14 78 -56 78q-52 0 -82 -67q-48 -110 -48 -251v-414h-44v264z" />
    <glyph glyph-name="SF040000" unicode="&#x2518;" 
d="M336 216h-336v72h264v504h72v-576z" />
    <glyph glyph-name="SF020000" unicode="&#x2514;" 
d="M264 792h72v-504h264v-72h-336v576z" />
    <glyph glyph-name="uniE007" unicode="&#xe007;" 
d="M443 394h2l68 273h79v-667h-60v536h-2l-85 -325h-2l-85 325h-2v-536h-60v667h79zM7 607v60h126q78 0 112 -64q40 -75 40 -270q0 -152 -21 -222q-34 -111 -130 -111h-127v60h39v547h-39zM106 60h27q45 0 64 42q28 61 28 231q0 274 -81 274h-38v-547z" />
    <glyph glyph-name="SF540000" unicode="&#x256a;" 
d="M0 216h264v72h-264v72h264v432h72v-432h264v-72h-264v-72h264v-72h-264v-432h-72v432h-264v72z" />
    <glyph glyph-name="intersection" unicode="&#x2229;" 
d="M546 0v444q0 101 -76 177q-75 74 -170 74t-170 -74q-76 -76 -76 -177v-444h-44v433q0 127 83 214q84 87 207 87t207 -87q83 -87 83 -214v-433h-44z" />
    <glyph glyph-name="SF070000" unicode="&#x2534;" 
d="M0 288h264v504h72v-504h264v-72h-600v72z" />
    <glyph glyph-name="SF210000" unicode="&#x2556;" 
d="M0 288h408v-576h-72v504h-72v-504h-72v504h-192v72z" />
    <glyph glyph-name="invbullet" unicode="&#x25d8;" 
d="M0 792h600v-1080h-600v1080zM213 165q35 -36 87 -36q51 0 87 36t36 87q0 50 -36 87q-37 36 -87 36t-87 -36q-36 -37 -36 -87q0 -52 36 -87z" />
    <glyph glyph-name="SF090000" unicode="&#x2524;" 
d="M0 288h264v504h72v-1080h-72v504h-264v72z" />
    <glyph glyph-name="SF270000" unicode="&#x255c;" 
d="M408 216h-408v72h192v504h72v-504h72v504h72v-576z" />
    <glyph glyph-name="uni25C0" unicode="&#x25c0;" 
d="M537 106l-474 254l474 254v-508z" />
    <glyph glyph-name="invcircle" unicode="&#x25d9;" 
d="M0 792h600v-1080h-600v1080zM138 90q68 -67 162 -67q95 0 162 67q67 68 67 162q0 95 -67 162t-162 67q-94 0 -162 -67q-67 -67 -67 -162q0 -94 67 -162zM168 384q55 55 132 55t132 -55t55 -132t-55 -132t-132 -55t-132 55t-55 132t55 132z" />
    <glyph glyph-name="invsmileface" unicode="&#x263b;" 
d="M94 536q84 84 206 84t206 -84t84 -206t-84 -206t-206 -84t-206 84t-84 206t84 206zM147 394q14 -15 35 -15t36 15q14 14 14 35t-14 36q-15 14 -36 14t-35 -14q-15 -15 -15 -36t15 -35zM383 394q14 -15 35 -15t36 15q14 14 14 35t-14 36q-15 14 -36 14t-35 -14
q-15 -15 -15 -36t15 -35zM440 172q23 27 17 56q-2 11 -8 13q-6 3 -11 -7q-50 -90 -138 -90t-138 90q-5 10 -11 7q-6 -2 -8 -13q-6 -29 17 -56q51 -62 140 -62t140 62z" />
    <glyph glyph-name="lfblock" unicode="&#x258c;" 
d="M0 792h300v-1080h-300v1080z" />
    <glyph glyph-name="SF410000" unicode="&#x2566;" 
d="M0 216h264v-504h-72v432h-192v72zM0 360h600v-72h-600v72zM336 216h264v-72h-192v-432h-72v504z" />
    <glyph glyph-name="ltshade" unicode="&#x2591;" 
d="M0 -190h100v-98h-100v98zM200 -190h100v-98h-100v98zM400 -190h100v-98h-100v98zM0 792h100v-98h-100v98zM200 792h100v-98h-100v98zM400 792h100v-98h-100v98zM0 595h100v-98h-100v98zM200 595h100v-98h-100v98zM400 595h100v-98h-100v98zM0 7h100v-98h-100v98zM200 7
h100v-98h-100v98zM400 7h100v-98h-100v98zM0 203h100v-98h-100v98zM200 203h100v-98h-100v98zM400 203h100v-98h-100v98zM0 399h100v-98h-100v98zM200 399h100v-98h-100v98zM400 399h100v-98h-100v98z" />
    <glyph glyph-name="male" unicode="&#x2642;" 
d="M343 232q0 53 -39 91q-39 40 -92 40t-92 -39t-39 -92q1 -53 40 -92q38 -38 91 -38t92 38q39 39 39 92zM484 530l-104 38v2h170v-170h-2l-39 104l-170 -170q38 -53 33 -115q-4 -60 -47 -103q-47 -47 -114 -46q-66 1 -114 48q-48 48 -48 114t47 113q43 44 103 48
q61 5 115 -34z" />
    <glyph glyph-name="SF530000" unicode="&#x256b;" 
d="M0 288h192v504h72v-504h72v504h72v-504h192v-72h-192v-504h-72v504h-72v-504h-72v504h-192v72z" />
    <glyph glyph-name="musicalnote" unicode="&#x266a;" 
d="M286 712h44v-63l62 -75q102 -123 102 -246q0 -98 -59 -166h-29q43 73 43 154q0 61 -29 113q-34 59 -90 68v-314q0 -84 -44 -130q-42 -43 -111 -43t-69 64q0 47 39 83q38 35 85 35q31 0 56 -11v531z" />
    <glyph glyph-name="phi1" unicode="&#x3d5;" 
d="M270 463q-85 -28 -85 -203t85 -201v404zM330 59q85 26 85 201q0 176 -85 202v-403zM330 530q65 -11 106 -70q49 -72 49 -200q0 -79 -20 -141q-38 -113 -135 -128v-71h-60v71q-66 11 -106 70q-49 71 -49 199t48 199q40 59 107 71v80h60v-80z" />
    <glyph glyph-name="rtblock" unicode="&#x2590;" 
d="M300 792h300v-1080h-300v1080z" />
    <glyph glyph-name="SF250000" unicode="&#x2557;" 
d="M0 216h264v-504h-72v432h-192v72zM0 360h408v-648h-72v576h-336v72z" />
    <glyph glyph-name="SF360000" unicode="&#x255e;" 
d="M600 144h-264v-432h-72v1080h72v-432h264v-72h-264v-72h264v-72z" />
    <glyph glyph-name="SF030000" unicode="&#x2510;" 
d="M336 -288h-72v504h-264v72h336v-576z" />
    <glyph glyph-name="uni00A0" unicode="&#xa0;" 
 />
    <glyph glyph-name="SF430000" unicode="&#x2550;" 
d="M0 216h600v-72h-600v72zM0 360h600v-72h-600v72z" />
    <glyph glyph-name="shade" unicode="&#x2592;" 
d="M0 -191h99v-97h-99v97zM200 -191h99v-97h-99v97zM400 -191h99v-97h-99v97zM0 792h99v-97h-99v97zM200 792h99v-97h-99v97zM400 792h99v-97h-99v97zM0 596h99v-97h-99v97zM200 596h99v-97h-99v97zM400 596h99v-97h-99v97zM0 5h99v-97h-99v97zM200 5h99v-97h-99v97zM400 5
h99v-97h-99v97zM0 202h99v-97h-99v97zM200 202h99v-97h-99v97zM400 202h99v-97h-99v97zM0 399h99v-97h-99v97zM200 399h99v-97h-99v97zM400 399h99v-97h-99v97zM100 694h99v-97h-99v97zM300 694h99v-97h-99v97zM500 694h100v-97h-100v97zM100 497h99v-97h-99v97zM300 497h99
v-97h-99v97zM500 497h100v-97h-100v97zM500 300h100v-97h-100v97zM300 300h99v-97h-99v97zM100 300h99v-97h-99v97zM100 103h99v-97h-99v97zM300 103h99v-97h-99v97zM500 103h100v-97h-100v97zM500 -93h100v-97h-100v97zM300 -93h99v-97h-99v97zM100 -93h99v-97h-99v97z" />
    <glyph glyph-name="smileface" unicode="&#x263a;" 
d="M94 536q84 84 206 84t206 -84t84 -206t-84 -206t-206 -84t-206 84t-84 206t84 206zM105 525q-79 -79 -79 -195t79 -195q80 -80 195 -80t195 80q79 79 79 195t-79 195q-80 80 -195 80t-195 -80zM147 465q14 14 35 14t36 -14q14 -15 14 -36t-14 -35q-15 -15 -36 -15t-35 15
q-15 14 -15 35t15 36zM383 465q14 14 35 14t36 -14q14 -15 14 -36t-14 -35q-15 -15 -36 -15t-35 15q-15 14 -15 35t15 36zM160 172q-23 27 -17 56q2 11 8 13q6 3 11 -7q50 -90 138 -90t138 90q5 10 11 7q6 -2 8 -13q6 -29 -17 -56q-51 -62 -140 -62t-140 62z" />
    <glyph glyph-name="spade" unicode="&#x2660;" 
d="M58 0l4 22q229 7 229 247h-2q-49 -110 -155 -110q-53 0 -92 37q-39 38 -39 91q0 80 133 195q137 117 163 230h2q26 -113 163 -230q68 -59 89 -85q44 -54 44 -110q0 -53 -39 -91q-39 -37 -92 -37q-106 0 -155 110h-2q0 -240 229 -247l4 -22h-484z" />
    <glyph glyph-name="SF060000" unicode="&#x252c;" 
d="M0 288h600v-72h-264v-504h-72v504h-264v72z" />
    <glyph glyph-name="sun" unicode="&#x263c;" 
d="M430 425q29 -32 36 -90h124v-32h-125q-7 -52 -38 -84l88 -88l-23 -23l-87 87q-36 -34 -89 -42v-123h-32v123q-58 8 -89 37l-87 -87l-22 23l87 87q-34 37 -39 90h-124v32h124q-1 57 35 96l-87 87l22 24l88 -88q35 27 92 31v125h32v-125q48 -2 91 -37l88 87l23 -22z
M201 224q37 -39 96 -39q61 0 100 39q37 38 37 95q-2 58 -38 96q-38 38 -98 38q-60 -1 -97 -40q-35 -37 -35 -94q0 -58 35 -95z" />
    <glyph glyph-name="triagdn" unicode="&#x25bc;" 
d="M46 596h508l-254 -474z" />
    <glyph glyph-name="SF370000" unicode="&#x255f;" 
d="M192 792h72v-1080h-72v1080zM336 792h72v-504h192v-72h-192v-504h-72v1080z" />
    <glyph glyph-name="triagup" unicode="&#x25b2;" 
d="M300 596l254 -474h-508z" />
    <glyph glyph-name="SF450000" unicode="&#x2567;" 
d="M0 216h600v-72h-600v72zM0 360h264v432h72v-432h264v-72h-600v72z" />
    <glyph glyph-name="uni2010" unicode="&#x2010;" 
d="M189 292h222v-63h-222v63z" />
    <glyph glyph-name="afii61289" unicode="&#x2113;" 
d="M525 120q-69 -124 -196 -124q-81 0 -126 54q-40 47 -44 121q-1 4 -1 11l-30 -23q-20 -16 -32 -24l-21 38l43 33q25 19 40 32v264q0 121 51 181q41 48 105 48q63 0 98 -47q31 -41 31 -107q0 -157 -225 -357l1 -24q3 -75 40 -115q33 -35 83 -35q94 0 150 102zM218 281
q176 174 176 292q0 111 -81 111q-37 0 -63 -37q-32 -46 -32 -135v-231z" />
    <glyph glyph-name="SF460000" unicode="&#x2568;" 
d="M0 288h192v504h72v-504h72v504h72v-504h192v-72h-600v72z" />
    <glyph glyph-name="upblock" unicode="&#x2580;" 
d="M0 792h600v-540h-600v540z" />
    <glyph glyph-name="A.superior" 
d="M249 428l-32 -90l-63 20l111 309h70l111 -309l-63 -20l-32 90h-102zM300 580l-33 -97h66zM140 291h320v-55h-320v55z" />
    <glyph glyph-name="O.superior" 
d="M140 291h320v-55h-320v55zM400 625q30 -45 30 -114t-30 -113q-34 -51 -100 -51t-100 51q-29 44 -29 113q0 70 29 114q34 51 100 51t100 -51zM238 511q0 -109 62 -109q63 0 63 109q0 110 -63 110q-62 0 -62 -110z" />
    <glyph glyph-name="uni25B6" unicode="&#x25b6;" 
d="M63 614l474 -254l-474 -254v508z" />
    <glyph glyph-name="arrowright" unicode="&#x2192;" 
d="M464 382q-49 75 -49 123q0 16 14 16q8 0 21 -20q56 -83 125 -123q21 -10 21 -18q0 -7 -21 -18q-69 -40 -125 -123q-13 -20 -21 -20q-14 0 -14 16q0 48 49 123h-460v44h460z" />
    <glyph glyph-name="arrowleft" unicode="&#x2190;" 
d="M596 382v-44h-460q49 -75 49 -123q0 -16 -14 -16q-8 0 -21 20q-56 83 -125 123q-21 11 -21 18q0 8 21 18q69 40 125 123q13 20 21 20q14 0 14 -16q0 -48 -49 -123h460z" />
    <glyph glyph-name="SF440000" unicode="&#x256c;" 
d="M0 216h264v-504h-72v432h-192v72zM0 360h192v432h72v-504h-264v72zM336 216h264v-72h-192v-432h-72v504zM336 792h72v-432h192v-72h-264v504z" />
    <glyph glyph-name="SF230000" unicode="&#x2563;" 
d="M336 792h72v-1080h-72v1080zM264 288h-264v72h192v432h72v-504zM264 -288h-72v432h-192v72h264v-504z" />
  </font>
</defs>
</svg>
